Loading...

Stanford Einstein's General theory of Relativity (12 lectures)

Posted By : GoodPoster | Date : 24 Mar 2011 15:09:39 | Comments : 4 |
|



Stanford Einstein's General theory of Relativity (12 lectures)
Flash Video | English | M4V | 320 x 240 | AVC ~321 kbps | 29.97 fps
AAC 128 kbps | 44.1 KHz | 2 channels | 4.14 GB
Genre: eLearning / Physics (2008)

This Stanford course studies the essential theoretical foundations of modern physics. The topics covered in this course focus on classical mechanics, quantum mechanics, the general and special theories of relativity, electromagnetism, cosmology, black holes and statistical mechanics.The course also looks into quantum mechanics, with topics like the quantum world, including the particle theory of light, the Heisenberg Uncertainty Principle, and the Schroedinger Equation.The course is taught by Leonard Susskind, the Felix Bloch Professor of Physics at Stanford University.

More info: http://www.virtualprofessors.com/8-lecture-course-einsteins-general-theory-of-relativity

video and audio info
C:\Users\Administrator\Desktop\Stanford-Einstein's General theory of Relativity\Einstein's Theory Lecture 1 (September 22, 2008).m4v
General
Complete name : C:\Users\Administrator\Desktop\Stanford-Einstein's General theory of Relativity\Einstein's Theory Lecture 1 (September 22, 2008).m4v
Format : MPEG-4
Codec ID : M4V
File size : 309 MiB
Duration : 1h 38mn
Overall bit rate : 438 Kbps
Movie name : Einstein's Theory Lecture 1 (September 22, 2008)
Album : Modern Physics: The Theoretical Minimum - Einstein's Theory
Performer : Leonard Susskind
Screenplay by : Stanford
Genre : iTunesĀ U
Encoded date : UTC 2009-01-12 22:21:12
Tagged date : UTC 2009-01-12 14:18:34
Comment : (September 22, 2008) Leonard Susskind discusses the concept of gravity and Newton's laws of motion as a brief introduction to Einstein's general theory of relativity.
catg : Physics
desc : science, physics, gravity, Albert Einstein, relativity, Isaac Newton, Galileo, astrophysics, space, mechanics, gravitational field theory, force, gravitational acceleration, equivalence principle, vector calculus, divergence, Gauss, force Newton's laws of
itnu : 1
purl : (Binary)
egid : (Binary)
ldes : science, physics, gravity, Albert Einstein, relativity, Isaac Newton, Galileo, astrophysics, space, mechanics, gravitational field theory, force, gravitational acceleration, equivalence principle, vector calculus, divergence, Gauss, force Newton's laws of
cnID : 0
rtng : 0
atID : 0
cmID : 0
plID : 0
geID : 0
sfID : 0
tvsn : 0
tves : 0
stik : 0
purd : 1904-01-01 00:00:00
rndu : 0
rpdu : 0
Video #1
ID : 1
Format : AVC
Format/Info : Advanced Video Codec
Format profile : Baseline@L1.3
Format settings, CABAC : No
Format settings, ReFrames : 1 frame
Codec ID : avc1
Codec ID/Info : Advanced Video Coding
Duration : 1h 38mn
Bit rate mode : Variable
Bit rate : 321 Kbps
Width : 320 pixels
Height : 240 pixels
Display aspect ratio : 4:3
Frame rate mode : Constant
Frame rate : 29.970 fps
Resolution : 24 bits
Colorimetry : 4:2:0
Scan type : Progressive
Bits/(Pixel*Frame) : 0.139
Stream size : 226 MiB (73%)
Language : English
Encoded date : UTC 2008-09-27 12:11:18
Tagged date : UTC 2008-09-27 12:12:56
colour_primaries : BT.601-6 525, BT.1358 525, BT.1700 NTSC, SMPTE 170M
transfer_characteristics : BT.709-5, BT.1361
matrix_coefficients : BT.601-6 525, BT.1358 525, BT.1700 NTSC, SMPTE 170M
Audio #2
ID : 2
Format : AAC
Format/Info : Advanced Audio Codec
Format version : Version 4
Format profile : LC
Format settings, SBR : No
Codec ID : 40
Duration : 1h 38mn
Bit rate mode : Constant
Bit rate : 114 Kbps
Nominal bit rate : 128 Kbps
Channel(s) : 2 channels
Channel positions : L R
Sampling rate : 44.1 KHz
Resolution : 16 bits
Stream size : 80.1 MiB (26%)
Language : English
Encoded date : UTC 2008-09-27 12:11:18
Tagged date : UTC 2009-01-12 14:18:34

Screenshot






Download - FILESONIC.com = High speed+parallel downloads!

http://www.filesonic.com/file/338489161/Stanford Einsteins General theory of Relativity (12 lectures).part01.rar
http://www.filesonic.com/file/338478431/Stanford Einsteins General theory of Relativity (12 lectures).part02.rar
http://www.filesonic.com/file/338497401/Stanford Einsteins General theory of Relativity (12 lectures).part03.rar
http://www.filesonic.com/file/338500611/Stanford Einsteins General theory of Relativity (12 lectures).part04.rar
http://www.filesonic.com/file/338510901/Stanford Einsteins General theory of Relativity (12 lectures).part05.rar
http://www.filesonic.com/file/338510261/Stanford Einsteins General theory of Relativity (12 lectures).part06.rar
http://www.filesonic.com/file/338525951/Stanford Einsteins General theory of Relativity (12 lectures).part07.rar
http://www.filesonic.com/file/338531161/Stanford Einsteins General theory of Relativity (12 lectures).part08.rar
http://www.filesonic.com/file/338542221/Stanford Einsteins General theory of Relativity (12 lectures).part09.rar
http://www.filesonic.com/file/338549341/Stanford Einsteins General theory of Relativity (12 lectures).part10.rar
http://www.filesonic.com/file/338563891/Stanford Einsteins General theory of Relativity (12 lectures).part11.rar
http://www.filesonic.com/file/338570901/Stanford Einsteins General theory of Relativity (12 lectures).part12.rar
http://www.filesonic.com/file/338593261/Stanford Einsteins General theory of Relativity (12 lectures).part13.rar
http://www.filesonic.com/file/338579841/Stanford Einsteins General theory of Relativity (12 lectures).part14.rar

-No mirrors, follow the rules-



ADVERTISING » Very Fast Download!



« ADVERTISING




Posted By: livium Date: 24 Mar 2011 22:32:35
I have a account with FileSonic. Very bad quality. It doesn't cooperate with any download manager. If it sees fit, the site will interrupt your d/l and the result will be a file with the same name, but with a length of 16 byte.

Who and why imposes this bad service?
Posted By: fouriertransform Date: 28 Mar 2011 02:53:45
These lectures can also be found on YouTube: http://www.youtube.com/user/StanfordUniversity#grid/user/6C8BDEEBA6BDC78D
Posted By: pisetta Date: 29 Mar 2011 10:29:28
I can't download part 13, I've premium account, can you check this, please?
Posted By: sawadee Date: 23 May 2011 00:54:39
Part 13 working.