Loading...

Marvin Gaye - What's Going On (1971) [MFSL 2008] PS3 ISO

Posted By : HDAtall | Date : 22 Aug 2012 11:04:25 | Comments : 3 |
|



Marvin Gaye - What's Going On (1971) [MFSL 2008]
PS3 Rip | ISO | SACD DSD64 2.0 > 1-bit/2.8224 MHz | 35:23 minutes | Scans included | 1,43 GB
Mobile Fidelity Sound Lab # UDSACD 2038

Marvin Gaye’s What’s Going On was a landmark recording and is considered one of the greatest albums ever made. Rolling Stone named it Album Of The Year when it came out and, in 2003, it was ranked number 6, the highest for a non-rock album, in Rolling Stone’s 500 Greatest Albums Of All Time. Mobile Fidelity Sound Lab has obtained the master tapes of this landmark album and for the first time What’s Going On has been released on the Super Audio CD.

Marvin Gaye’s 1971 landmark recording, What’s Going On, revolutionized music history. The brilliant concept album featured politically charge anthems tackling themes of urban decay, environmental issues, police brutality, unemployment and poverty. The album not only topped the Billboard R&B charts, it was featured on countless “Best of” lists including Spin magazine, Q magazine, Mojo and NME. The album ranked #6 on Rolling Stone’s “500 Greatest Albums of All Time.” The album received high regards from Billboard, the Chicago Tribune, The Observer, Rolling Stone, Pitchfork, Slant Magazine, Uncut and Q. Included were the monster hits, “What’s Going On” and “Inner City Blues.”


Tracklist:

01 - What's Going On
02 - What's Happening Brother
03 - Flyin' High (In The Friendly Sky)
04 - Save The Children
05 - God Is Love
06 - Mercy Mercy Me (The Ecology)
07 - Right On
08 - Wholy Holy
09 - Inner City Blues (Make Me Wanna Holler)

Mastered by Rob LoVerde at Mobile Fidelity Sound Lab, Sebastopol, CA.

Dynamic Range
foobar2000 1.1.14a / Dynamic Range Meter 1.1.1

--------------------------------------------------------------------------------
Analyzed: MARVIN GAYE / WHAT'S GOING ON
--------------------------------------------------------------------------------

DR Peak RMS Duration Track
--------------------------------------------------------------------------------
DR12 -6.14 dB -19.64 dB 3:52 01-What's Going On
DR11 -6.25 dB -19.72 dB 2:43 02-What's Happening Brother
DR10 -6.25 dB -19.09 dB 3:48 03-Flying High (In the Friendly Sky)
DR11 -6.31 dB -19.95 dB 4:02 04-Save The Children
DR11 -6.77 dB -18.67 dB 1:41 05-God Is Love
DR11 -6.29 dB -18.80 dB 3:13 06-Mercy Mercy Me (The Ecology)
DR12 -6.29 dB -20.15 dB 7:30 07-Right On
DR11 -7.49 dB -22.70 dB 3:07 08-Wholy Holy
DR13 -6.16 dB -20.98 dB 5:27 09-Inner City Blues (Make Me Wanna' Holler)
--------------------------------------------------------------------------------

Number of tracks: 9
Official DR value: DR11

Samplerate: 2822400 Hz / PCM Samplerate: 88200 Hz
Channels: 2
Bits per sample: 24
Bitrate: 5645 kbps
Codec: DSD64



Confirmed to be played on
Cambridge Audio Azur 650BD
Cambridge Audio Azur 751BD
Denon DBP-1611UD
Denon DBP-2012UD
Denon DVD-2910
Denon DVD-3910
Denon DVD-5910
Denon DVD-A11
Marantz DV7600
Marantz UD5005
NAD M5
NAD M55
NAD T585
OPPO BDP-80
OPPO BDP-83
OPPO BDP-83SE
OPPO BDP-93
OPPO BDP-95
Pioneer BDP-140
Pioneer BDP-440
Shanling SCD300
Sony BDP-S180
Sony BDP-S370 *(after further analysis it was discovered that there was something really wrong with the sinewaves generated by the Sony, as they were not clean but very fuzzy, like rips of vinyls in bad shape. So cannot recommend it.)
Sony BDP-S370/BX37
Sony BDP-S380
Sony BDP-S470
Sony BDP-S570
Sony BDP-S580
Sony BDP-S770
Sony BDP-S780
Sony BDP-S870
Sony BDP-S970
Sony BDV-E870
Sony BDV-ES570
Sony BDV-F500
Yamaha BD-S1067
Yamaha BD-A1010


Cannot be played on
Accuphase DP-100
Arcam DV137
BBK DV727S
Cambridge Audio DVD89
Cambridge Audio DVD99
Cary DVD8
Denon DVD-1930
Denon DVD-1940
Denon DVD-2900
Denon DVD-2930
Denon DVD-3930
Denon DVD-A1UD
EMM Labs CDSD
Esoteric SZ-1s
Harman/Kardon DVD 47
Integra DPS-6.9
Marantz DV-6001
Marantz DV-6500
Marantz DV-7001
Marantz DV-8400
Marantz DV-9500
Marantz DV-9600
Marantz SA-11S2
Marantz SA-15S1
Marantz SA-7001
Marantz SA-7003
NAD T535
Onkyo C-S5VL
Onkyo DV-506
Onkyo DV-SP504
Onkyo DV-SP506
Oppo DV-980H
Oppo DV-981HD
Oppo DV-983H
Parasound D3
Philips DVP-9000S
Pioneer DV-563A
Pioneer DV-565A
Pioneer DV-565
Pioneer DV-575A
Pioneer DV-585A
Pioneer DV-600AV
Pioneer DV-610AV
Pioneer DV-655A
Pioneer DV-656
Pioneer DV-656A
Pioneer DV-696AV
Pioneer DV-696S
Pioneer DV-733A
Pioneer DV-757Ai
Pioneer DV-868AVi
Pioneer DV-989AVi
Pioneer PD-D6-J
Pioneer PDX-Z9
Sherwood Newcastle SD-871
Sony BDV-E280
Sony DVP-NS90V
Sony DVP-NS700V
Sony DVP-NS900V
Sony DVP-NS955V
Sony DVP-S9000ES
Sony PlayStation3
Sony SCD-555ES
Sony SCD-CE595
Sony SCD-XA3000ES
Sony SCD-XA5400ES
Sony SCD-XB790
Sony SCD-XB940 QS
Sony SCD-XB970QS
Yamaha CD-S1000
Yamaha CD-S2000
Yamaha DVD-S1500


Confirmed to play (after custom firmware update)
Onkyo DV-SP502E
Oppo DV-970HD
Oppo DV980H
Oppo DV-981HD
Pioneer DV-LX50
Pioneer DV-575A
Pioneer DV-578A
Pioneer DV-585A
Pioneer DV-588A
Pioneer DV-600AV
Pioneer DV-610AV
Pioneer DV-696AV
Samsung HD745/945/950
Samsung HD841/941
Yamaha DVD-S657
Yamaha DVD-S1700
Yamaha DVD-S1800
Yamaha DVD-S2700


Perfectly played on Foobar2000 with "foo_input_sacd" plugin.
Thanks to PS³SACD!


RAR's compressed size > 1,12 GB

ADVERTISING » Very Fast Download!



« ADVERTISING




Posted By: mahos Date: 14 Sep 2012 12:56:44
I found a little blank (no sound) on 'Mercy Mercy Me' at 2:21;
i convert in flac 24/88.2 with Foobar, probably is a sw error,
but pls check your iso.
Thank you anyway!
Posted By: IceJoki Date: 12 Mar 2014 12:01:59
Hi
THX Great rip ... works flawlessly with foobar 2000 playing the iso file all through ... mahos must have flawed his conversation
Posted By: dickytimms Date: 15 Apr 2014 11:04:01
Thanks so much HDAtall for another MoFi SACD. ;D