Loading...

Elton John - Goodbye Yellow Brick Road (1973/1996) [Official Digital Download 24bit/96kHz]

Posted By : HiDefVagon | Date : 19 Sep 2013 16:47:50 | Comments : 2 |
|



Elton John - Goodbye Yellow Brick Road (1973/1996)
FLAC (tracks) 24 bit/96 kHz | Time - 76:35 minutes | 1,73 GB
Official Digital Download - Source: HDTracks.com | Digital Booklet

Elton John’s 1973 best selling masterpiece - seven times platinum - was also his most brilliantly diverse record. Originally released as a double LP, the album runs a gamut of styles and features some of the greatest singles of 1970s rock. This hi-def release offers an amazing re-experience of one of the all-time greatest rock recordings.

Goodbye Yellow Brick Road was where Elton John's personality began to gather more attention than his music, as it topped the American charts for eight straight weeks. In many ways, the double album was a recap of all the styles and sounds that made John a star. Goodbye Yellow Brick Road is all over the map, beginning with the prog rock epic "Funeral for a Friend (Love Lies Bleeding)" and immediately careening into the balladry of "Candle in the Wind." For the rest of the album, John leaps between popcraft ("Bennie and the Jets"), ballads ("Goodbye Yellow Brick Road"), hard rock ("Saturday Night's Alright for Fighting"), novelties ("Jamaica Jerk-Off"), Bernie Taupin's literary pretensions ("The Ballad of Danny Bailey"), and everything in between. Though its diversity is impressive, the album doesn't hold together very well. Even so, its individual moments are spectacular and the glitzy, crowd-pleasing showmanship that fuels the album pretty much defines what made Elton John a superstar in the early '70s.


Tracklist:

01 - Funeral For A Friend / Love Lies Bleeding
02 - Candle In The Wind
03 - Bennie And The Jets
04 - Goodbye Yellow Brick Road
05 - This Song Has No Title
06 - Grey Seal
07 - Jamaica Jerk-Off
08 - I've Seen That Movie Too
09 - Sweet Painted Lady
10 - The Ballad Of Danny Bailey (1909-1934)
11 - Dirty Little Girl
12 - All The Girls Love Alice
13 - Your Sister Can't Twist (But She Can Rock'n Roll)
14 - Saturday Night's Alright For Fighting
15 - Roy Rogers
16 - Social Disease
17 - Harmony

Dynamic Range Report
Analyzed: Elton John / Goodbye Yellow Brick Road
--------------------------------------------------------------------------------

DR Peak RMS Duration Track
--------------------------------------------------------------------------------
DR8 -0.03 dB -10.87 dB 11:08 01-Funeral For A Friend / Love Lies Bleeding
DR9 -0.42 dB -11.84 dB 3:50 02-Candle In The Wind
DR10 -0.04 dB -11.49 dB 5:24 03-Bennie And The Jets
DR9 -0.03 dB -11.60 dB 3:14 04-Goodbye Yellow Brick Road
DR9 -0.11 dB -12.83 dB 2:24 05-This Song Has No Title
DR8 -0.02 dB -10.90 dB 4:02 06-Grey Seal
DR9 -0.03 dB -10.82 dB 3:40 07-Jamaica Jerk-Off
DR10 0.00 dB -13.16 dB 5:59 08-I've Seen That Movie Too
DR12 0.00 dB -14.40 dB 3:57 09-Sweet Painted Lady
DR9 -0.05 dB -11.97 dB 4:25 10-The Ballad Of Danny Bailey (1909-1934)
DR9 -0.03 dB -10.59 dB 5:03 11-Dirty Little Girl
DR9 -0.03 dB -12.07 dB 5:10 12-All The Girls Love Alice
DR8 -0.03 dB -9.73 dB 2:42 13-Your Sister Can't Twist (But She Can Rock'n Roll)
DR8 -0.03 dB -9.87 dB 4:57 14-Saturday Night's Alright For Fighting
DR9 -0.03 dB -11.55 dB 4:09 15-Roy Rogers
DR9 -0.02 dB -10.73 dB 3:44 16-Social Disease
DR9 -0.03 dB -11.68 dB 2:48 17-Harmony
--------------------------------------------------------------------------------

Number of tracks: 17
Official DR value: DR9

Samplerate: 96000 Hz
Channels: 2
Bits per sample: 24
Bitrate: 3117 kbps
Codec: FLAC
================================================================================


Thanks to the Original customer!

ADVERTISING » Very Fast Download!



« ADVERTISING




Posted By: ePhysician Date: 19 Sep 2013 18:23:41
Fantastic Blog Entry. Thank you!
Posted By: sulpete Date: 19 Sep 2013 23:54:33
great share, thanks so much.