Loading...

The Enid - Invicta (2012) [Official Digital Download 24bit/96kHz]

Posted By : HiDefVagon | Date : 06 May 2013 10:01:29 | Comments : 3 |
|



The Enid - Invicta (2012)
FLAC (tracks) 24 bit/96 kHz | Time - 52:49 minutes | 897 MB
Official Digital Download - Source: TheEnid.co.uk | Front cover
Symphonic Rock / Progressive Rock

Described by Time Out as "Pink Floyd meets The Berlin Philharmonic" and "The Most Majestic Rock Band of All Time".
After forming in 1974, The Enid invented a brand of unique, powerful, romantic symphonic rock music. The line-up span three generations and just completed a highly acclaimed 13th studio album, INVICTA.

Formed among friends in 1974 The Enid invented a school of intelligent, powerful and romantic popular music which is unique to them. The Enid “school of art” for want of a better description, is free from constraints of template rock/pop where rhythm, harmony and melody are invariably dictated by the traditions, prejudices and limitations associated with style. The Enid were the first band to be funded entirely by their fans. This was a revolutionary concept when first deployed and led to the current situation with bands as diverse as Marillion, Radiohead and Hawkwind following this lead.

A glimpse of the history of a band once described by Tommy Vance on BBC Radio One as the “biggest cult band in Europe”.

In the 80’s The Enid got kicked off the Glastonbury CND festival when Godfrey pointed out that the then owners of EMI made parts for nuclear missiles. The band still holds the record for the most encores at Reading Festival which they have played five times. £80, 000 was donated to the band in a carrier bag by a fan in the 1980's. The band came to the attention of MI5 at the height of the Cruise Missile crises in 1984.

In 2009 - after a 10 year break - founder members Robert John Godfrey and Dave Storey put together a new band. Since then The Enid has had fantastic receptions in gigs all over the UK, in Europe and the in USA. In 2012, Joe Payne, now the youngest member, a talented vocalist aged 23, joined the band for the 13th studio album – INVICTA – which is now receiving wide acclaim including being voted into the Top Ten Guardian readers poll for best album and best track.


Tracklist:

01+02 - Anthropy - One & The Many
03+04 - Who Created Me? - Execution Mob
05 - Witch Hunt
06 - Heaven's Gate
07 - Leviticus
08 - Villain Of Science
09 - The Whispering

Dynamic Range Report
Analyzed: The Enid / Invicta
--------------------------------------------------------------------------------

DR Peak RMS Duration Track
--------------------------------------------------------------------------------
DR17 0.00 dB -22.43 dB 11:22 01+02-Anthropy - One & The Many
DR16 -1.55 dB -21.99 dB 9:54 03+04-Who Created Me? - Execution Mob
DR15 -0.01 dB -19.24 dB 6:36 05-Witch Hunt
DR17 0.00 dB -24.28 dB 9:12 06-Heaven's Gate
DR14 -0.93 dB -20.39 dB 6:09 07-Leviticus
DR15 -0.38 dB -20.23 dB 5:13 08-Villain Of Science
DR12 -7.88 dB -25.84 dB 4:23 09-The Whispering
--------------------------------------------------------------------------------

Number of tracks: 7
Official DR value: DR15

Samplerate: 96000 Hz
Channels: 2
Bits per sample: 24
Bitrate: 2268 kbps
Codec: FLAC
================================================================================


Thanks to the Original releaser!

ADVERTISING » Very Fast Download!



« ADVERTISING




Posted By: sulpete Date: 07 May 2013 16:29:10
Thanks very much for this cd in such high quality.
A great, if somewhat "underground" band.

Cheers, Peter
Posted By: harrygee Date: 11 Jun 2013 01:32:37
Thank you for this introduction in such high quality. Appreciated.
Posted By: maxread Date: 12 Jun 2013 09:28:37
The band and myself spent a year writing this album, and 3 month recording it. If you like it, pop over to our website at theenid.co.uk and buy a copy. That way we may be able to afford to make another album!