Loading...

Red Hot Chili Peppers - Mother's Milk (1989/2013) [Official Digital Download 24bit/192kHz]

Posted By : HiDefVagon | Date : 08 May 2013 15:09:13 | Comments : 1 |
|



Red Hot Chili Peppers - Mother's Milk (1989/2013)
FLAC (tracks) 24 bit/192 kHz | Time - 44:53 minutes | 1,89 GB
Official Digital Download - Source: HDTracks.com | Front cover

A pivotal album for the Red Hot Chili Peppers, 1989's Mother's Milk turned the tide and transformed the band from underground funk-rocking rappers to mainstream bad boys with seemingly very little effort. Mother's Milk brought them to MTV, scored them a deal with Warner Brothers, and let both frontman Anthony Kiedis and the ubiquitous Flea get back out into a good groove following the death of co-founding member Hillel Slovak. With a new lineup coalescing around the remaining duo with new drummer Chad Smith and guitarist John Frusciante, and with producer Michael Beinhorn again behind the boards, the band took everything that The Uplift Mofo Party Plan hinted at, and brought it fully to bear for this new venture. If anyone doubted the pulsating power that leapt from the blistering opener, "Good Time Boys," it took only a few bars of the Red Hot Chili Peppers' outrageous, and brilliant, interpretation of the Stevie Wonder classic "Higher Ground" to prove that this new lineup was onto something special. Wrapping up with the aptly titled and truly punked-out "Punk Rock Classic" and the band's own punched-up tribute to "Magic Johnson," Mother's Milk was everything the band had hoped for, and a little more besides. Effortlessly going gold as "Knock Me Down" and "Taste the Pain" careened into the charts, the album not only set the stage for the band's Blood Sugar Sex Magic domination, it also proved that funk never died; it had just swapped skins.


Tracklist:

01 - Good Time Boys
02 - Higher Ground
03 - Subway To Venus
04 - Magic Johnson
05 - Nobody Weird Like Me
06 - Knock Me Down
07 - Taste The Pain
08 - Stone Cold Bush
09 - Fire
10 - Pretty Little Ditty
11 - Punk Rock Classic
12 - Sexy Mexican Maid
13 - Johnny, Kick A Hole In The Sky

Dynamic Range Report
Analyzed: Red Hot Chili Peppers / Mother's Milk
--------------------------------------------------------------------------------

DR Peak RMS Duration Track
--------------------------------------------------------------------------------
DR7 -0.68 dB -9.74 dB 5:02 01-Good Time Boys
DR8 -1.03 dB -10.27 dB 3:22 02-Higher Ground
DR8 -1.06 dB -10.49 dB 4:25 03-Subway To Venus
DR8 -0.70 dB -9.80 dB 2:57 04-Magic Johnson
DR8 -1.40 dB -10.72 dB 3:49 05-Nobody Weird Like Me
DR9 -1.16 dB -10.87 dB 3:44 06-Knock Me Down
DR7 -0.85 dB -10.74 dB 4:32 07-Taste The Pain
DR7 -1.10 dB -9.79 dB 3:05 08-Stone Cold Bush
DR6 -1.15 dB -9.69 dB 2:03 09-Fire
DR7 -1.99 dB -11.89 dB 1:36 10-Pretty Little Ditty
DR8 -1.31 dB -10.29 dB 1:47 11-Punk Rock Classic
DR9 -0.67 dB -11.17 dB 3:22 12-Sexy Mexican Maid
DR8 -0.80 dB -10.26 dB 5:10 13-Johnny, Kick A Hole In The Sky
--------------------------------------------------------------------------------

Number of tracks: 13
Official DR value: DR8

Samplerate: 192000 Hz
Channels: 2
Bits per sample: 24
Bitrate: 5723 kbps
Codec: FLAC
======================

Thanks to the Original releaser!

ADVERTISING » Very Fast Download!



« ADVERTISING




Posted By: AKKWEG Date: 08 May 2013 15:25:25
THANK YOU! Very nice updates ;-)