Loading...

The Velvet Underground - The Velvet Underground & Nico (1967/2012) {45th Anniversary Remaster} [24bit/192kHz]

Posted By : HiDefVagon | Date : 10 Mar 2013 21:20:00 | Comments : 5 |
|



The Velvet Underground - The Velvet Underground & Nico (1967/2012) {45th Anniversary Remaster}
FLAC (tracks) 24 bit/192 kHz | Time - 48:57 minutes | 2100 MB
Official Digital Download - Source: HDTracks.com | Front cover

Polydor celebrates the now-iconic album’s 45th anniversary with this newly remastered edition. The album is a groundbreaking work from one of music’s most influential rock bands. This self-titled 1967 classic helped the band earn a spot in the Rock and Roll Hall of Fame and is one of the 225 recordings in the prestigious Library of Congress National Recording Registry. It ranks #13 on Rolling Stone’s “500 Greatest Albums of All Time” and is one of Spin Magazine’s “15 Most Influential Albums of All Time.” It also topped the Observer’s list of “50 Albums That Changed Music”.

One would be hard-pressed to name a rock album whose influence has been as broad and pervasive as The Velvet Underground & Nico. While it reportedly took over a decade for the album's sales to crack six figures, glam, punk, new wave, goth, noise, and nearly every other left-of-center rock movement owes an audible debt to this set. While The Velvet Underground had as distinctive a sound as any band, what's most surprising about this album is its diversity. Here, the Velvets dipped their toes into dreamy pop ("Sunday Morning"), tough garage rock ("Waiting for the Man"), stripped-down R&B ("There She Goes Again"), and understated love songs ("I'll Be Your Mirror") when they weren't busy creating sounds without pop precedent. Lou Reed's lyrical exploration of drugs and kinky sex (then risky stuff in film and literature, let alone "teen music") always received the most press attention, but the music Reed, John Cale, Sterling Morrison, and Maureen Tucker played was as radical as the words they accompanied. The bracing discord of "European Son," the troubling beauty of "All Tomorrow's Parties," and the expressive dynamics of "Heroin" all remain as compelling as the day they were recorded. While the significance of Nico's contributions have been debated over the years, she meshes with the band's outlook in that she hardly sounds like a typical rock vocalist, and if Andy Warhol's presence as producer was primarily a matter of signing the checks, his notoriety allowed The Velvet Underground to record their material without compromise, which would have been impossible under most other circumstances. Few rock albums are as important as The Velvet Underground & Nico, and fewer still have lost so little of their power to surprise and intrigue more than 40 years after first hitting the racks.


Tracklist:

01 - Sunday Morning
02 - I'm Waiting For The Man
03 - Femme Fatale
04 - Venus In Furs
05 - Run Run Run
06 - All Tomorrow's Parties
07 - Heroin
08 - There She Goes Again
09 - I'll Be Your Mirror
10 - Black Angel's Death Song
11 - European Son

Dynamic Range Report
Analyzed: The Velvet Underground / The Velvet Underground & Nico (45th Anniversary Remaster)
--------------------------------------------------------------------------------

DR Peak RMS Duration Track
--------------------------------------------------------------------------------
DR9 -3.37 dB -14.45 dB 2:56 01-Sunday Morning
DR8 -1.01 dB -11.39 dB 4:40 02-I'm Waiting For The Man
DR8 -3.77 dB -13.72 dB 2:39 03-Femme Fatale
DR11 -1.50 dB -14.00 dB 5:12 04-Venus In Furs
DR10 -2.39 dB -14.91 dB 4:22 05-Run Run Run
DR10 -1.97 dB -15.50 dB 6:00 06-All Tomorrow's Parties
DR11 -0.79 dB -14.93 dB 7:14 07-Heroin
DR9 -1.30 dB -12.33 dB 2:41 08-There She Goes Again
DR10 -2.35 dB -15.77 dB 2:14 09-I'll Be Your Mirror
DR9 -2.35 dB -14.07 dB 3:12 10-Black Angel's Death Song
DR8 -2.28 dB -12.60 dB 7:47 11-European Son
--------------------------------------------------------------------------------

Number of tracks: 11
Official DR value: DR9

Samplerate: 192000 Hz
Channels: 2
Bits per sample: 24
Bitrate: 5748 kbps
Codec: FLAC
================================================================================


Thanks to the Original releaser!

ADVERTISING » Very Fast Download!



« ADVERTISING




Posted By: tystnu Date: 07 Nov 2012 18:39:53
Thanks a lot!!
Posted By: harrygee Date: 11 Nov 2012 21:29:46
Another classic in fitting 24 bit sound. Thank you for your very good posts, HiDefVagon!
Posted By: Enquirewithin Date: 13 Nov 2012 08:41:55
Thank you! :)
Posted By: Rorque Date: 18 Jan 2013 13:33:12
Many thanks for sharing, and re-upping.
Be well.
Posted By: Bottles&Cans Date: 02 Mar 2013 01:07:11
Cheers for this, great post. Really enjoying the stuff you're posting.