Loading...

Casino Lights - Recorded Live At Montreux (1982)

Posted By : chicopicho | Date : 06 Aug 2010 08:06:00 | Comments : 4 |
|



Casino Lights - Recorded Live At Montreux (1982)
EAC rip (secure mode) | FLAC+CUE+LOG | Scans | 427 MB
Genre: Jazz | Label: Warner bros | Release Date: 1982


Casino Lights includes several tracks with Randy Crawford & Al Jarreau, plus the Yellowjackets, David Sanborn and Mike Mainieri. ~ Keith Farley, All Music Guide

Tracklist

01 - Al Jarreau & Randy Crawford / Your Precious Love
02 - Al Jarreau & Randy Crawford / Who's Right, Who's Wrong
03 - Al Jarreau & Randy Crawford / Sure Enough
04 - Randy Crawford Accompanied By Yellowjackets / Imagine
05 - Yellowjackets / Monmouth College Fight Song
06 - David Sanborn / Theme From 'Love Is Not Enough'
07 - David Sanborn / Hideaway
08 - Neil Larsen & Buzz Feiten / Casino Lights
09 - Yellowjackets / Tee Time For Eric
10 - Larry Carlton With Yellowjackets / Last Night
11 - Neil Larsen & Buzz Feiten / E Minor Song
12 - Mike Manieri / Sara's Touch

EAC Log
Exact Audio Copy V0.99 prebeta 4 from 23. January 2008

EAC extraction logfile from 3. August 2010, 10:21

Casino Lights / Recorded Live At Montreux, Switzerland

Used drive : HL-DT-STDVD-RAM GSA-H55N Adapter: 0 ID: 0

Read mode : Secure
Utilize accurate stream : Yes
Defeat audio cache : Yes
Make use of C2 pointers : No

Read offset correction : 102
Overread into Lead-In and Lead-Out : Yes
Fill up missing offset samples with silence : Yes
Delete leading and trailing silent blocks : No
Null samples used in CRC calculations : Yes
Used interface : Installed external ASPI interface
Gap handling : Appended to previous track

Used output format : User Defined Encoder
Selected bitrate : 768 kBit/s
Quality : High
Add ID3 tag : No
Command line compressor : C:\Program Files\Exact Audio Copy\Flac\flac.exe
Additional command line options : -8 -V -T "ARTIST=%a" -T "TITLE=%t" -T "ALBUM=%g" -T "DATE=%y" -T "TRACKNUMBER=%n" -T "GENRE=%m" -T "COMMENT=EAC FLAC -8" %s


TOC of the extracted CD

Track | Start | Length | Start sector | End sector
---------------------------------------------------------
1 | 0:00.00 | 5:47.37 | 0 | 26061
2 | 5:47.37 | 5:14.38 | 26062 | 49649
3 | 11:02.00 | 4:29.05 | 49650 | 69829
4 | 15:31.05 | 5:59.07 | 69830 | 96761
5 | 21:30.12 | 6:39.48 | 96762 | 126734
6 | 28:09.60 | 8:33.17 | 126735 | 165226
7 | 36:43.02 | 6:21.60 | 165227 | 193861
8 | 43:04.62 | 5:21.35 | 193862 | 217971
9 | 48:26.22 | 7:31.60 | 217972 | 251856
10 | 55:58.07 | 6:17.40 | 251857 | 280171
11 | 62:15.47 | 5:27.13 | 280172 | 304709
12 | 67:42.60 | 9:53.70 | 304710 | 349254


Track 1

Filename H:\Rips\01 - Al Jarreau & Randy Crawford , Your Precious Love.wav

Pre-gap length 0:00:02.00

Peak level 83.9 %
Track quality 100.0 %
Test CRC 550E10E9
Copy CRC 550E10E9
Accurately ripped (confidence 10) [486E676B]
Copy OK

Track 2

Filename H:\Rips\02 - Al Jarreau & Randy Crawford , Who's Right, Who's Wrong.wav

Peak level 89.5 %
Track quality 100.0 %
Test CRC BD8124F5
Copy CRC BD8124F5
Accurately ripped (confidence 9) [FBA178BC]
Copy OK

Track 3

Filename H:\Rips\03 - Al Jarreau & Randy Crawford , Sure Enough.wav

Peak level 83.4 %
Track quality 100.0 %
Test CRC C55124BB
Copy CRC C55124BB
Accurately ripped (confidence 9) [D4F1E426]
Copy OK

Track 4

Filename H:\Rips\04 - Randy Crawford Accompanied By Yellowjackets , Imagine.wav

Peak level 72.4 %
Track quality 100.0 %
Test CRC 3F722562
Copy CRC 3F722562
Accurately ripped (confidence 11) [CC280176]
Copy OK

Track 5

Filename H:\Rips\05 - Yellowjackets , Monmouth College Fight Song.wav

Peak level 84.3 %
Track quality 100.0 %
Test CRC CFA7BBDE
Copy CRC CFA7BBDE
Accurately ripped (confidence 9) [246035E6]
Copy OK

Track 6

Filename H:\Rips\06 - David Sanborn , Theme From 'Love Is Not Enough'.wav

Peak level 87.3 %
Track quality 100.0 %
Test CRC 459374D8
Copy CRC 459374D8
Accurately ripped (confidence 8) [D22AE61A]
Copy OK

Track 7

Filename H:\Rips\07 - David Sanborn , Hideaway.wav

Peak level 87.2 %
Track quality 100.0 %
Test CRC 65098FD7
Copy CRC 65098FD7
Accurately ripped (confidence 9) [24825A40]
Copy OK

Track 8

Filename H:\Rips\08 - Neil Larsen & Buzz Feiten , Casino Lights.wav

Peak level 73.1 %
Track quality 100.0 %
Test CRC C36F8AE8
Copy CRC C36F8AE8
Accurately ripped (confidence 10) [7F0BB149]
Copy OK

Track 9

Filename H:\Rips\09 - Yellowjackets , Tee Time For Eric.wav

Peak level 80.7 %
Track quality 100.0 %
Test CRC A933F163
Copy CRC A933F163
Accurately ripped (confidence 9) [60796843]
Copy OK

Track 10

Filename H:\Rips\10 - Larry Carlton With Yellowjackets , Last Night.wav

Peak level 96.4 %
Track quality 99.9 %
Test CRC 926F29F1
Copy CRC 926F29F1
Accurately ripped (confidence 10) [A6A348DF]
Copy OK

Track 11

Filename H:\Rips\11 - Neil Larsen & Buzz Feiten , E Minor Song.wav

Peak level 95.1 %
Track quality 100.0 %
Test CRC 91C27625
Copy CRC 91C27625
Accurately ripped (confidence 10) [BE33A3FB]
Copy OK

Track 12

Filename H:\Rips\12 - Mike Manieri , Sara's Touch.wav

Peak level 65.5 %
Track quality 100.0 %
Test CRC BCD22279
Copy CRC BCD22279
Accurately ripped (confidence 9) [CB836631]
Copy OK


All tracks accurately ripped

No errors occurred

End of status report



ADVERTISING » Very Fast Download!



« ADVERTISING




Posted By: Moonchild70 Date: 06 Aug 2010 11:28:22
Fantastisco......L'aspettavo.Ringraziamenti dall'Italia
Posted By: pompel Date: 06 Aug 2010 22:00:18
This looks great, many thanks!
Posted By: Mojuba Date: 07 Aug 2010 10:46:45
Thankssssssssss
;-)
Posted By: cueto Date: 08 Aug 2010 09:48:11
Great sharing. Thanks for HF too