Loading...

Lester Bowie - All The Magic! (1982) [2CD] {ECM 1246}

Posted By : tiburon | Date : 24 Mar 2011 04:02:51 | Comments : 3 |
|



Lester Bowie - All The Magic! (1982) [2CD] {ECM 1246}
EAC 0.95b4 | FLAC tracks level 8 | Cue+Log+M3U | Full Scans 300dpi | 376MB + 5% Recovery
Genre: Jazz

Two very different sessions are combined on this two-LP set. Trumpeter Lester Bowie and a quintet also including Ari Brown on tenor and soprano, pianist Art Matthews, bassist Fred Williams, and drummer Phillip Wilson, are often used to accompany the soulful and gospel-oriented vocals of Fontella Bass and David Peaston (in addition to taking colorful solos). The 12-minute "For Louie" and a suite that is dominated by an emotional version of "Everything Must Change" are highlights; also memorable is a brief version of Albert Ayler's "Ghosts." The second album is quite a bit different, a set of unaccompanied trumpet solos by Bowie that are often quite humorous.


Track List

CD1 All The Magic!

01. For Louie (Wilson, Phillip) 12:14
02. Spacehead (Bowie, Lester) 6:47
03. Ghosts (Ayler, Albert) 3:09
04. Index 1: All the Magic From Trans Traditional Suite (Bowie & Ighner) 15:51
Index 2: Everything Must Change From Trans Traditional Suite (Bowie & Ighner)
Index 3: T. Jam Blues From Trans Traditional Suite (Bowie & Ighner)
05. Let the Good Times Roll (Leonard, Lee) 6:47

CD2 The One And Only

01. Organic Echo (Bowie, Lester) 3:17
02. Dunce Dance (Bowie, Lester) 2:05
03. Charlie M (Part II) (Bowie, Lester) 2:49
04. Thirsty? (Bowie, Lester) 3:34
05. Almost Christmas (Bowie, Lester) 3:52
06. Down Home (Bowie, Lester) 2:40
07. Okra Influence (Bowie, Lester) 4:38
08. Miles Davis Meets Donald Duck (Bowie, Lester) 1:39
09. Deb Deb's Face (Bowie, Lester) 2:03
10. Monkey Waltz (Bowie, Lester) 1:47
11. Fradulent Fanfare (Bowie, Lester) 1:01
12. Organic Echo (Part II) (Bowie, Lester) 5:27

musicians

Lester Bowie - trumpet
Ari Brown - tenor and soprano saxophones
Art Matthews - piano
Fred Williams - bass
Phillip Wilson - drums
Fontella Bass - vocals
David Peaston - vocals

Produced by Manfred Eicher

EAC Combined Logfile

EAC extraction logfile from 9. April 2007, 9:56 for CD
Lester Bowie / All The Magic

Used drive : PHILIPS DROM6216 Adapter: 3 ID: 0
Read mode : Secure with NO C2, accurate stream, disable cache
Read offset correction : 738
Overread into Lead-In and Lead-Out : No

Used output format : C:\Program Files\FLAC\flac.exe (User Defined Encoder)
320 kBit/s
Additional command line options : -V -8 -T "artist=%a" -T "title=%t" -T "album=%g" -T "date=%y" -T "tracknumber=%n" -T "genre=%m" %s

Other options :
Fill up missing offset samples with silence : Yes
Delete leading and trailing silent blocks : No
Native Win32 interface for Win NT & 2000


Track 1
Filename C:\MUZIEK 1\Lester Bowie - All The Magic(1983)[flac]\01 - For Louie.wav

Pre-gap length 0:00:02.44

Peak level 91.3 %
Track quality 100.0 %
Test CRC B12CD236
Copy CRC B12CD236
Copy OK

Track 2
Filename C:\MUZIEK 1\Lester Bowie - All The Magic(1983)[flac]\02 - Spacehead.wav

Pre-gap length 0:00:03.60

Peak level 87.0 %
Track quality 100.0 %
Test CRC 93182DDA
Copy CRC 93182DDA
Copy OK

Track 3
Filename C:\MUZIEK 1\Lester Bowie - All The Magic(1983)[flac]\03 - Ghosts.wav

Pre-gap length 0:00:04.36

Peak level 96.9 %
Track quality 99.9 %
Test CRC 4EAE7E0B
Copy CRC 4EAE7E0B
Copy OK

Track 4
Filename C:\MUZIEK 1\Lester Bowie - All The Magic(1983)[flac]\04 - Trans Traditional Suite.wav

Pre-gap length 0:00:04.53

Peak level 84.8 %
Track quality 100.0 %
Test CRC 10C17A11
Copy CRC 10C17A11
Copy OK

Track 5
Filename C:\MUZIEK 1\Lester Bowie - All The Magic(1983)[flac]\05 - Let The Good Times Roll.wav

Pre-gap length 0:00:04.73

Peak level 84.8 %
Track quality 100.0 %
Test CRC 699CAE49
Copy CRC 699CAE49
Copy OK

No errors occured


End of status report

EAC extraction logfile from 9. April 2007, 10:47 for CD
Lester Bowie / The One And Only

Used drive : PHILIPS DROM6216 Adapter: 3 ID: 0
Read mode : Secure with NO C2, accurate stream, disable cache
Read offset correction : 738
Overread into Lead-In and Lead-Out : No

Used output format : C:\Program Files\FLAC\flac.exe (User Defined Encoder)
320 kBit/s
Additional command line options : -V -8 -T "artist=%a" -T "title=%t" -T "album=%g" -T "date=%y" -T "tracknumber=%n" -T "genre=%m" %s

Other options :
Fill up missing offset samples with silence : Yes
Delete leading and trailing silent blocks : No
Native Win32 interface for Win NT & 2000


Track 1
Filename C:\MUZIEK 1\Lester Bowie - All The Magic(1983)[flac]\CD 2\01 - Organic Echo.wav

Pre-gap length 0:00:02.44

Peak level 64.1 %
Track quality 100.0 %
Test CRC 1F5DA56A
Copy CRC 1F5DA56A
Copy OK

Track 2
Filename C:\MUZIEK 1\Lester Bowie - All The Magic(1983)[flac]\CD 2\02 - Dunce Dance.wav

Pre-gap length 0:00:01.24

Peak level 80.3 %
Track quality 100.0 %
Test CRC FA32A824
Copy CRC FA32A824
Copy OK

Track 3
Filename C:\MUZIEK 1\Lester Bowie - All The Magic(1983)[flac]\CD 2\03 - Charlie M..wav

Pre-gap length 0:00:01.52

Peak level 59.8 %
Track quality 100.0 %
Test CRC 408C8FA2
Copy CRC 408C8FA2
Copy OK

Track 4
Filename C:\MUZIEK 1\Lester Bowie - All The Magic(1983)[flac]\CD 2\04 - Thirsty .wav

Pre-gap length 0:00:02.84

Peak level 79.1 %
Track quality 100.0 %
Test CRC 967E5922
Copy CRC 967E5922
Copy OK

Track 5
Filename C:\MUZIEK 1\Lester Bowie - All The Magic(1983)[flac]\CD 2\05 - Almost Christmas.wav

Pre-gap length 0:00:00.33

Peak level 56.7 %
Track quality 100.0 %
Test CRC 9C7AB142
Copy CRC 9C7AB142
Copy OK

Track 6
Filename C:\MUZIEK 1\Lester Bowie - All The Magic(1983)[flac]\CD 2\06 - Down Home.wav

Pre-gap length 0:00:01.62

Peak level 56.3 %
Track quality 100.0 %
Test CRC 61E163B8
Copy CRC 61E163B8
Copy OK

Track 7
Filename C:\MUZIEK 1\Lester Bowie - All The Magic(1983)[flac]\CD 2\07 - Okra Influence.wav

Pre-gap length 0:00:05.09

Peak level 84.8 %
Track quality 100.0 %
Test CRC D4A7AC6E
Copy CRC D4A7AC6E
Copy OK

Track 8
Filename C:\MUZIEK 1\Lester Bowie - All The Magic(1983)[flac]\CD 2\08 - Miles Davis Meets Donald Duck.wav

Pre-gap length 0:00:04.00

Peak level 23.6 %
Track quality 100.0 %
Test CRC B92A1B66
Copy CRC B92A1B66
Copy OK

Track 9
Filename C:\MUZIEK 1\Lester Bowie - All The Magic(1983)[flac]\CD 2\09 - Deb Deb's Face.wav

Pre-gap length 0:00:01.84

Peak level 54.4 %
Track quality 99.9 %
Test CRC C8C2C449
Copy CRC C8C2C449
Copy OK

Track 10
Filename C:\MUZIEK 1\Lester Bowie - All The Magic(1983)[flac]\CD 2\10 - Monkey Waltz.wav

Pre-gap length 0:00:04.66

Peak level 68.5 %
Track quality 100.0 %
Test CRC 80758B89
Copy CRC 80758B89
Copy OK

Track 11
Filename C:\MUZIEK 1\Lester Bowie - All The Magic(1983)[flac]\CD 2\11 - Fradulent Fanfare.wav

Pre-gap length 0:00:02.93

Peak level 83.3 %
Track quality 100.0 %
Test CRC 2536100A
Copy CRC 2536100A
Copy OK

Track 12
Filename C:\MUZIEK 1\Lester Bowie - All The Magic(1983)[flac]\CD 2\12 - Organic Echo (Part 2).wav

Peak level 74.3 %
Track quality 100.0 %
Test CRC 8F244AF1
Copy CRC 8F244AF1
Copy OK

No errors occured


End of status report




The Files Are Interchangeable

A rip and permission for reupload by charlychan

Visit My Blog

ADVERTISING » Very Fast Download!



« ADVERTISING




Posted By: LazyJazz Date: 24 Mar 2011 04:28:53
Many thanks for sharing this, tiburon.
Posted By: Nick Cave Date: 24 Mar 2011 09:50:00
Muchas Gracias tiburon, Saludos desde Argentina !!
Posted By: notoriousd Date: 01 Oct 2011 01:40:40
gracias wey