Loading...

Michael Jackson - HIStory: Past, Present and Future, Book I (1995)

Posted By : d-urbano | Date : 26 Dec 2009 22:09:49 | Comments : 7 |
|



Michael Jackson - HIStory: Past, Present and Future, Book I (1995)
EAC Rip | FLAC, IMG+CUE, LOG | 898 Mb
Artwork | Pop/Rock | RS.com
Epic Records | Catalog Number: 474709 2 | Released: June 16, 1995

HIStory: Past, Present and Future, Book I (usually shortened to HIStory) is a two disc ninth studio album by Michael Jackson, released on June 16, 1995. The first disc is a compilation album (HIstory begins), whereas the second disc (HIstory continues) is all new song's. HIStory is the best-selling multiple disc album ever, with worldwide sales of over 20 million copies (40 million in terms of units). The album won one Grammy for Best Music Video — Short Form for "Scream". The greatest hits disc was reissued on November 13, 2001 under the name Greatest Hits: HIStory, Volume I and has sold additional 4 million copies worldwide.



EAC Log
Exact Audio Copy V0.99 prebeta 5 from 4. May 2009

EAC extraction logfile from 8. January 2010, 1:58

Michael Jackson / History: Past, Present & Future 1

Used drive : HL-DT-STDVDRAM GSA-H44N Adapter: 0 ID: 0

Read mode : Secure
Utilize accurate stream : Yes
Defeat audio cache : No
Make use of C2 pointers : No

Read offset correction : 667
Overread into Lead-In and Lead-Out : No
Fill up missing offset samples with silence : Yes
Delete leading and trailing silent blocks : No
Null samples used in CRC calculations : No
Used interface : Native Win32 interface for Win NT & 2000

Used output format : User Defined Encoder
Selected bitrate : 896 kBit/s
Quality : High
Add ID3 tag : No
Command line compressor : C:\Program Files\Exact Audio Copy\FLAC\FLAC.EXE
Additional command line options : -6 -V -T "ARTIST=%a" -T "TITLE=%t" -T "ALBUM=%g" -T "DATE=%y" -T "TRACKNUMBER=%n" -T "GENRE=%m" -T "COMMENT=%e" %s -o %d


TOC of the extracted CD

Track | Start | Length | Start sector | End sector
---------------------------------------------------------
1 | 0:00.00 | 4:54.25 | 0 | 22074
2 | 4:54.25 | 4:57.37 | 22075 | 44386
3 | 9:51.62 | 4:15.70 | 44387 | 63581
4 | 14:07.57 | 3:40.63 | 63582 | 80144
5 | 17:48.45 | 3:38.07 | 80145 | 96501
6 | 21:26.52 | 4:07.33 | 96502 | 115059
7 | 25:34.10 | 4:12.10 | 115060 | 133969
8 | 29:46.20 | 5:19.37 | 133970 | 157931
9 | 35:05.57 | 5:57.52 | 157932 | 184758
10 | 41:03.34 | 4:18.73 | 184759 | 204181
11 | 45:22.32 | 3:41.70 | 204182 | 220826
12 | 49:04.27 | 3:59.70 | 220827 | 238821
13 | 53:04.22 | 6:05.00 | 238822 | 266196
14 | 59:09.22 | 6:04.23 | 266197 | 293519
15 | 65:13.45 | 6:24.55 | 293520 | 322374


Range status and errors

Selected range

Filename C:\Users\Durban\Downloads\Michael Jackson - History Past, Present & Future 1.wav

Peak level 100.0 %
Range quality 100.0 %
Test CRC BD75965B
Copy CRC BD75965B
Copy OK

No errors occurred


AccurateRip summary

Track 1 accurately ripped (confidence 79) [B2473A09]
Track 2 accurately ripped (confidence 78) [79772923]
Track 3 accurately ripped (confidence 78) [E5273D44]
Track 4 accurately ripped (confidence 78) [5ADD8E85]
Track 5 accurately ripped (confidence 78) [8D9BB579]
Track 6 accurately ripped (confidence 78) [727AC849]
Track 7 accurately ripped (confidence 78) [0827F634]
Track 8 accurately ripped (confidence 78) [26554A04]
Track 9 accurately ripped (confidence 78) [CAF46397]
Track 10 accurately ripped (confidence 79) [2FB2DFA7]
Track 11 accurately ripped (confidence 78) [C176D139]
Track 12 accurately ripped (confidence 77) [C8B123EA]
Track 13 accurately ripped (confidence 74) [269CEEBB]
Track 14 accurately ripped (confidence 73) [75753185]
Track 15 accurately ripped (confidence 71) [B4895CC8]

All tracks accurately ripped

End of status report


Disc: 1

1. Billie Jean
2. Way You Make Me Feel
3. Black or White
4. Rock with You
5. She's Out of My Life
6. Bad
7. I Just Can't Stop Loving You
8. Man in the Mirror
9. Thriller
10. Beat It
11. Girl Is Mine
12. Remember the Time
13. Don't Stop 'Til You Get Enough
14. Wanna Be Startin' Somethin'
15. Heal the World


EAC Log
Exact Audio Copy V0.99 prebeta 5 from 4. May 2009

EAC extraction logfile from 8. January 2010, 2:48

Michael Jackson / HIStory 2

Used drive : HL-DT-STDVDRAM GSA-H44N Adapter: 0 ID: 0

Read mode : Secure
Utilize accurate stream : Yes
Defeat audio cache : No
Make use of C2 pointers : No

Read offset correction : 667
Overread into Lead-In and Lead-Out : No
Fill up missing offset samples with silence : Yes
Delete leading and trailing silent blocks : No
Null samples used in CRC calculations : No
Used interface : Native Win32 interface for Win NT & 2000

Used output format : User Defined Encoder
Selected bitrate : 896 kBit/s
Quality : High
Add ID3 tag : No
Command line compressor : C:\Program Files\Exact Audio Copy\FLAC\FLAC.EXE
Additional command line options : -6 -V -T "ARTIST=%a" -T "TITLE=%t" -T "ALBUM=%g" -T "DATE=%y" -T "TRACKNUMBER=%n" -T "GENRE=%m" -T "COMMENT=%e" %s -o %d


TOC of the extracted CD

Track | Start | Length | Start sector | End sector
---------------------------------------------------------
1 | 0:00.00 | 4:38.69 | 0 | 20918
2 | 4:38.69 | 4:44.11 | 20919 | 42229
3 | 9:23.05 | 5:44.30 | 42230 | 68059
4 | 15:07.35 | 4:20.70 | 68060 | 87629
5 | 19:28.30 | 6:46.20 | 87630 | 118099
6 | 26:14.50 | 4:49.42 | 118100 | 139816
7 | 31:04.17 | 4:41.70 | 139817 | 160961
8 | 35:46.12 | 4:02.45 | 160962 | 179156
9 | 39:48.57 | 5:45.30 | 179157 | 205061
10 | 45:34.12 | 4:28.08 | 205062 | 225169
11 | 50:02.20 | 4:32.20 | 225170 | 245589
12 | 54:34.40 | 4:49.50 | 245590 | 267314
13 | 59:24.15 | 6:37.35 | 267315 | 297124
14 | 66:01.50 | 6:13.62 | 297125 | 325161
15 | 72:15.37 | 4:56.38 | 325162 | 347399


Range status and errors

Selected range

Filename C:\Users\Durban\Downloads\Michael Jackson - HIStory 2.wav

Peak level 100.0 %
Range quality 100.0 %
Test CRC 440026E9
Copy CRC 440026E9
Copy OK

No errors occurred


AccurateRip summary

Track 1 accurately ripped (confidence 47) [37594DA5]
Track 2 accurately ripped (confidence 46) [C762F8C2]
Track 3 accurately ripped (confidence 48) [5E9FD6CF]
Track 4 accurately ripped (confidence 47) [88FF3833]
Track 5 accurately ripped (confidence 47) [F36F8FCC]
Track 6 accurately ripped (confidence 47) [3B70C975]
Track 7 accurately ripped (confidence 47) [9E06327D]
Track 8 accurately ripped (confidence 47) [44D82934]
Track 9 accurately ripped (confidence 46) [75874D61]
Track 10 accurately ripped (confidence 46) [9DB90000]
Track 11 accurately ripped (confidence 47) [4FACE25F]
Track 12 accurately ripped (confidence 47) [B14904F6]
Track 13 accurately ripped (confidence 47) [36008F4C]
Track 14 accurately ripped (confidence 46) [1B0B9FCC]
Track 15 accurately ripped (confidence 46) [799C9A93]

All tracks accurately ripped

End of status report


Disc: 2

1. Scream
2. They Don't Care About Us
3. Stranger in Moscow
4. This Time Around
5. Earth Song
6. D.S.
7. Money
8. Come Together
9. You Are Not Alone
10. Childhood [Theme from "Free Willy 2"]
11. Tabloid Junkie
12. 2 Bad
13. History
14. Little Susie
15. Smile




ADVERTISING » Very Fast Download!



« ADVERTISING




Posted By: Pico1965 Date: 27 Dec 2009 09:02:05
Thanks for your work!!

Why you don't share full HQ covers?!!
Posted By: inconu Date: 30 Dec 2009 07:08:09
Error on the first files i can't extract all the tracks with 7z
Posted By: d-urbano Date: 30 Dec 2009 07:26:21
can't be...because I myself i've looked the archives...
try to download again maybe some files are broke...
Posted By: sergiovc Date: 07 Jan 2010 03:19:56
These files are gone. Please, any mirror???
Posted By: d-urbano Date: 08 Jan 2010 11:27:37
updated links!!!!
Posted By: paranoid1 Date: 25 Jun 2010 00:17:09
Thank you! Benn looking for this one in FLAC :)
Posted By: RazorBoy143 Date: 13 Sep 2011 22:11:17
FYI: RS link to album is dead. Please re-upload.