Loading...

Quincy Jones - The Great Wide World Of (2009) {LHJ10379}

Posted By : tiburon | Date : 22 Jan 2011 17:08:07 | Comments : 1 |
|



The Great Wide World Of Quincy Jones - (2009)
EAC 1.0 | FLAC tracks level 8 | Cue+Log+M3U+MD5 | Scans 600dpi | 484MB + 5% Recovery
Genre: Jazz,Big Band

Quincy Jones has had such strong success in pop music since the mid-1960s that it is easy to forget just how inventive and distinctive a jazz arranger he was during his prime years. This CD reissue features the Quincy Jones Big Band shortly before they sailed to Europe as part of a Harold Arlen show. Surprisingly, none of the selections are Jones originals, and the arrangements were provided by Ernie Wilkins, Bill Potts, Al Cohn and Ralph Burns. Despite Jones' absence musically (he did conduct the group), the music sounds very much like his work.


Track List

01. Lester Leaps In 3:35
02. Ghana 4:38
03. Caravan 3:30
04. Everybody’s Blues 4:15
05. Cherokee 3:11
06. Air Mail Special 2:35
07. They Say It’s Wonderful 3:24
08. Chant Of The Weed 3:15
09. I Never Has Seen Snow 3:11
10. Eesom 5:06

Recorded in New York, November 4 & 9, 1959

11. Air Mail Special
12. Banja Luka
13. Bess, You Is My Woman Now
14. Solitude
15. Stolen Moments
16. Moanin’

Recorded live in Zurich, Switzerland, on March 10, 1961

Tracks 01-10 originally issued as Mercury SR60221.
Tracks 11-16 issued in Japan as Mercury 195 J32.

musicians on tracks 1-10

Lee Morgan, Art Farmer, Ernie Royal, Jimmy Maxwel, Nick Travis, Lennie Johnson (tp), Jimmy Cleveland, Frank Rehak, Urbie Green, Billy Byers (tb), Julius Watkins (fhr), Phil Woods, Porter Kilbert (as), Jerome Richardson (fl, ts, pic), Budd Johnson (ts), Sahib Shihab (bs), Patti Bown (p), Les Spann (g, fl), Buddy Catlet (b)and Don Lamond (d). Quincy Jones (conductor)

musicians on tracks 11-16

Freddie Hubbard, Benny Bailey, Rolf Ericson, Paul Cohen (tp), Curtis Fuller, Melba Liston, Ake Persson (tb), Julius Watkins (fhr), Phil Woods, Joe Lopes (as), Eric Dixon, Budd Johnson (ts), Sahib Shihab (bs, fl), Patti Bown (p), Les Spann (g, fl), Buddy Catlet (b) and Stu Martin (d). Quincy Jones (arranger & conductor)

EAC Logfile

Exact Audio Copy V1.0 beta 1 from 15. November 2010

EAC extraction logfile from 20. January 2011, 17:53

Quincy Jones / The Great Wide World Of Quincy Jones

Used drive : HL-DT-STDVDRAM GH20NS10 Adapter: 2 ID: 0

Read mode : Secure
Utilize accurate stream : Yes
Defeat audio cache : Yes
Make use of C2 pointers : No

Read offset correction : 667
Overread into Lead-In and Lead-Out : No
Fill up missing offset samples with silence : Yes
Delete leading and trailing silent blocks : No
Null samples used in CRC calculations : Yes
Used interface : Native Win32 interface for Win NT & 2000
Gap handling : Appended to previous track

Used output format : User Defined Encoder
Selected bitrate : 1024 kBit/s
Quality : High
Add ID3 tag : No
Command line compressor : C:\Program Files\Exact Audio Copy\Flac\flac.exe
Additional command line options : -8 -V -T "ARTIST=%a" -T "TITLE=%t" -T "ALBUM=%g" -T "DATE=%y" -T "TRACKNUMBER=%n" -T "TOTALTRACKS=%x" -T "GENRE=%m" -T "ALBUMARTIST=%v" -T "ALBUM ARTIST=%v" -T "COMMENT=EAC Secure Mode, Test & Copy, AccurateRip, FLAC -8" %s


TOC of the extracted CD

Track | Start | Length | Start sector | End sector
---------------------------------------------------------
1 | 0:00.00 | 3:35.62 | 0 | 16186
2 | 3:35.62 | 4:38.25 | 16187 | 37061
3 | 8:14.12 | 3:30.66 | 37062 | 52877
4 | 11:45.03 | 4:15.74 | 52878 | 72076
5 | 16:01.02 | 3:11.47 | 72077 | 86448
6 | 19:12.49 | 2:35.57 | 86449 | 98130
7 | 21:48.31 | 3:24.56 | 98131 | 113486
8 | 25:13.12 | 3:15.55 | 113487 | 128166
9 | 28:28.67 | 3:11.43 | 128167 | 142534
10 | 31:40.35 | 5:06.51 | 142535 | 165535
11 | 36:47.11 | 3:51.05 | 165536 | 182865
12 | 40:38.16 | 9:18.74 | 182866 | 224789
13 | 49:57.15 | 6:10.74 | 224790 | 252613
14 | 56:08.14 | 3:31.74 | 252614 | 268512
15 | 59:40.13 | 13:28.74 | 268513 | 329186
16 | 73:09.12 | 2:58.13 | 329187 | 342549


Track 1

Filename G:\Quincy Jones - The Great Wide World Of (2009) {LHJ10379}\01 - Lester Leaps In.wav

Pre-gap length 0:00:02.00

Peak level 100.0 %
Extraction speed 3.7 X
Track quality 99.9 %
Test CRC ECB98448
Copy CRC ECB98448
Cannot be verified as accurate (confidence 2) [DF490875], AccurateRip returned [A6AA1233]
Copy OK

Track 2

Filename G:\Quincy Jones - The Great Wide World Of (2009) {LHJ10379}\02 - Ghana.wav

Peak level 100.0 %
Extraction speed 5.3 X
Track quality 100.0 %
Test CRC E658035F
Copy CRC E658035F
Cannot be verified as accurate (confidence 2) [91D54EE4], AccurateRip returned [66DAAE4C]
Copy OK

Track 3

Filename G:\Quincy Jones - The Great Wide World Of (2009) {LHJ10379}\03 - Caravan.wav

Peak level 100.0 %
Extraction speed 5.3 X
Track quality 100.0 %
Test CRC 44CE5F6D
Copy CRC 44CE5F6D
Cannot be verified as accurate (confidence 2) [83379AAB], AccurateRip returned [143D39CD]
Copy OK

Track 4

Filename G:\Quincy Jones - The Great Wide World Of (2009) {LHJ10379}\04 - Everybody's Blues.wav

Peak level 100.0 %
Extraction speed 5.8 X
Track quality 100.0 %
Test CRC 8C39C931
Copy CRC 8C39C931
Cannot be verified as accurate (confidence 2) [E3B95FA7], AccurateRip returned [0EAFAB5F]
Copy OK

Track 5

Filename G:\Quincy Jones - The Great Wide World Of (2009) {LHJ10379}\05 - Cherokee (Indian Love Song).wav

Peak level 100.0 %
Extraction speed 5.8 X
Track quality 100.0 %
Test CRC 62DA4835
Copy CRC 62DA4835
Cannot be verified as accurate (confidence 2) [9844F9D2], AccurateRip returned [19579B2E]
Copy OK

Track 6

Filename G:\Quincy Jones - The Great Wide World Of (2009) {LHJ10379}\06 - Air Mail Special.wav

Peak level 97.2 %
Extraction speed 5.8 X
Track quality 100.0 %
Test CRC 296A2EBB
Copy CRC 296A2EBB
Cannot be verified as accurate (confidence 2) [E95422E2], AccurateRip returned [26D5AFCA]
Copy OK

Track 7

Filename G:\Quincy Jones - The Great Wide World Of (2009) {LHJ10379}\07 - They Say It's Wonderful.wav

Peak level 95.6 %
Extraction speed 6.3 X
Track quality 100.0 %
Test CRC 4817A1E8
Copy CRC 4817A1E8
Cannot be verified as accurate (confidence 2) [AEC216EB], AccurateRip returned [A0F447ED]
Copy OK

Track 8

Filename G:\Quincy Jones - The Great Wide World Of (2009) {LHJ10379}\08 - Chant of the Weed.wav

Peak level 100.0 %
Extraction speed 6.6 X
Track quality 100.0 %
Test CRC 9ACDF8A6
Copy CRC 9ACDF8A6
Cannot be verified as accurate (confidence 2) [9D499300], AccurateRip returned [7F22B689]
Copy OK

Track 9

Filename G:\Quincy Jones - The Great Wide World Of (2009) {LHJ10379}\09 - I Never Has Seen Snow.wav

Peak level 95.7 %
Extraction speed 5.3 X
Track quality 99.9 %
Test CRC E2CA2041
Copy CRC E2CA2041
Cannot be verified as accurate (confidence 2) [78222B1B], AccurateRip returned [7A6077A8]
Copy OK

Track 10

Filename G:\Quincy Jones - The Great Wide World Of (2009) {LHJ10379}\10 - Eesom.wav

Peak level 100.0 %
Extraction speed 7.4 X
Track quality 100.0 %
Test CRC A1EEB570
Copy CRC A1EEB570
Cannot be verified as accurate (confidence 2) [C6363B84], AccurateRip returned [C107BE11]
Copy OK

Track 11

Filename G:\Quincy Jones - The Great Wide World Of (2009) {LHJ10379}\11 - Air Mail Special (Live).wav

Peak level 75.2 %
Extraction speed 7.3 X
Track quality 100.0 %
Test CRC 46C56F70
Copy CRC 46C56F70
Cannot be verified as accurate (confidence 2) [4299A686], AccurateRip returned [DED0D1D3]
Copy OK

Track 12

Filename G:\Quincy Jones - The Great Wide World Of (2009) {LHJ10379}\12 - Banjaluka (Live).wav

Peak level 83.4 %
Extraction speed 8.7 X
Track quality 100.0 %
Test CRC 2AB5BD56
Copy CRC 2AB5BD56
Cannot be verified as accurate (confidence 2) [16CFFE46], AccurateRip returned [B64D5244]
Copy OK

Track 13

Filename G:\Quincy Jones - The Great Wide World Of (2009) {LHJ10379}\13 - Bess You Is My Woman Now (Live).wav

Peak level 75.3 %
Extraction speed 8.8 X
Track quality 100.0 %
Test CRC 75E611E7
Copy CRC 75E611E7
Cannot be verified as accurate (confidence 2) [CEB26368], AccurateRip returned [F326F639]
Copy OK

Track 14

Filename G:\Quincy Jones - The Great Wide World Of (2009) {LHJ10379}\14 - In My Solitude (Live).wav

Peak level 74.8 %
Extraction speed 8.4 X
Track quality 100.0 %
Test CRC 45CA4A7A
Copy CRC 45CA4A7A
Cannot be verified as accurate (confidence 2) [F2A79BCE], AccurateRip returned [4B0EA249]
Copy OK

Track 15

Filename G:\Quincy Jones - The Great Wide World Of (2009) {LHJ10379}\15 - Stolen Moments (Live).wav

Peak level 78.2 %
Extraction speed 9.9 X
Track quality 100.0 %
Test CRC B435EA81
Copy CRC B435EA81
Cannot be verified as accurate (confidence 2) [A37D2FBD], AccurateRip returned [1F032C74]
Copy OK

Track 16

Filename G:\Quincy Jones - The Great Wide World Of (2009) {LHJ10379}\16 - Moanin' (Live).wav

Peak level 71.9 %
Extraction speed 8.5 X
Track quality 100.0 %
Test CRC C4B6D8C9
Copy CRC C4B6D8C9
Cannot be verified as accurate (confidence 2) [1F95EA7E], AccurateRip returned [7E0B5270]
Copy OK


No tracks could be verified as accurate
You may have a different pressing from the one(s) in the database

No errors occurred

End of status report

==== Log checksum 191C89B9489CE3CFE49776B2045BA848B4B530D282DDF7C740337ADC039825AD ====





The Files Are Interchangeable

A Rip By tiburon

Visit My Blog

ADVERTISING » Very Fast Download!



« ADVERTISING




Posted By: itsartolie Date: 23 Jan 2011 13:15:53
excellent, many thanks!