Loading...

Burt Bucharach - Various Interpreters - The Look of Love - The Burt Bacharach Collection

Posted By : vavo | Date : 24 Jan 2010 04:13:58 | Comments : 6 |
|



Various Interpreters - The Look of Love - The Burt Bacharach Collection (released 1998)
EAC Rip | Accurate | FLAC tracks + M3U + LOG | no CUE (separate tracks) | HQ-Artwork (300dpi) included in packaging | 2CD 874MB
Evergreen | Pop | Label: WSM | Catalog Number: 9548-396242| RAR 3% Rec. | RS.com | Source: My collection (as usual)



The Burt Bacharach revival was one of the most pleasing things about pop music in the late '90s, but it did produce an abundance of reissues, many of which seemed superfluous. So, it may be easy to dismiss Hip-O's Love Songs of Burt Bacharach as an unnecessary compilation, especially since it arrived in the summer of 1999, when the revival was starting to fade. That would be unfortunate because it's one of the best Bacharach compilations of the CD age. True, it's nowhere near comprehensive (particularly in comparison to Rhino's exhaustive three-disc box, The Look of Love), but it's a concise sampling of classic recordings of Bacharach's best songs. A few songs aren't here in their best-known or best versions -- "Anyone Who Had a Heart" is by Luther Vandross instead of Dionne Warwick; Perry Como's "Magic Moments" doesn't quite fit the tone of the disc, for instance, nor does Patti LaBelle and Michael McDonald's otherwise fine duet "On My Own" -- but the compilers should be given credit for choosing Naked Eyes' excellent revamping of "Always Something There to Remind Me" and Isaac Hayes' reinvention of "Walk on By." The rest of the disc is devoted to classic renditions of classic songs, from Aretha Franklin's "I Say a Little Prayer" to Bacharach and Elvis Costello's contemporary classic, "This House Is Empty Now" (which, in this context, sounds more timeless than ever). Sure, there might be a couple of noteworthy songs missing, but it's nevertheless a representative sampler that's not only ideal for casual listeners on a budget, it will still be entertaining for serious fans.
Review on AMG


Personnel:
Among the others: Carpenters, Dionne Warwick, Tom Jones, Aretha Franklin, Dusty Springfield, Perry Como, Elvis Costello, The Pretenders, etc.

Tracks CD1:
01 - (They Long To Be) Close To You.flac
02 - Do You Know The Way To San Jose.flac
03 - Magic Moments.flac
04 - The Story Of My Life.flac
05 - Raindrops Keep Fallin' On My Head.flac
06 - I Say A Little Prayer.flac
07 - Baby It's You.flac
08 - Please Stay.flac
09 - What's New Pussycat.flac
10 - Tower Of Strength.flac
11 - (The Man Who Shot) Liberty Valance.flac
12 - I Just Don't Know What To Do With Myself.flac
13 - I'll Never Fall In Love Again.flac
14 - Nikki.flac
15 - Mexican Divorce.flac
16 - (There Goes) The Forgotten Man.flac
17 - Blue On Blue.flac
18 - This Empty Place.flac
19 - Let The Music Play.flac
20 - Anyone Who Had A Heart.flac
21 - A House Is Not A Home.flac
22 - You'll Never Get To Heaven (If You Break My Heart).flac
23 - Only Love Can Break A Heart.flac
24 - Any Day Now (My Wild Beatiful Bird).flac
25 - Casino Royale.flac

Tracks CD2:
01 - The Look Of Love.flac
02 - Walk On By.flac
03 - Don't Go Breaking My Heart.flac
04 - (There's) Always Something There To Remind Me.flac
05 - What The World Needs Now Is Love.flac
06 - Reach Out For Me.flac
07 - Wives And Lovers.flac
08 - Twenty Four Hours From Tulsa.flac
09 - Make It Easy On Yourself.flac
10 - Don't Make Me Over.flac
11 - Trains And Boats And Planes.flac
12 - Be True To Yourself.flac
13 - Made In Paris.flac
14 - Alfie.flac
15 - Wishin' And Hopin'.flac
16 - This (Girl's) In Love With You.flac
17 - Living Together, Growing Together.flac
18 - Odds And Ends.flac
19 - I Wake Up Crying.flac
20 - To Wait For Love.flac
21 - It's Love That Really Counts (In The Long Run).flac
22 - Arthur's Theme (The Best That You Can Do).flac
23 - The Windows Of The World.flac
24 - That's What Friends Are For.flac
25 - God Give Me Strength.flac

EAC Log CD1

Exact Audio Copy V0.99 prebeta 5 from 4. May 2009

EAC extraction logfile from 30. May 2009, 16:02

Various / The Look Of Love - The Burt Bacharach Collection [Disc 1]

Used drive : HL-DT-STDVD-ROM GDR8163B Adapter: 1 ID: 1

Read mode : Secure
Utilize accurate stream : Yes
Defeat audio cache : Yes
Make use of C2 pointers : Yes

Read offset correction : 102
Overread into Lead-In and Lead-Out : No
Fill up missing offset samples with silence : Yes
Delete leading and trailing silent blocks : No
Null samples used in CRC calculations : No
Used interface : Native Win32 interface for Win NT & 2000
Gap handling : Not detected, thus appended to previous track

Used output format : User Defined Encoder
Selected bitrate : 768 kBit/s
Quality : High
Add ID3 tag : No
Command line compressor : C:\Programmi\Exact Audio Copy\FLAC\FLAC.EXE
Additional command line options : -6 -V -T "ARTIST=%a" -T "TITLE=%t" -T "ALBUM=%g" -T "DATE=%y" -T "TRACKNUMBER=%n" -T "GENRE=%m" -T "COMMENT=%e" %s -o %d


TOC of the extracted CD

Track | Start | Length | Start sector | End sector
---------------------------------------------------------
1 | 0:00.00 | 3:45.67 | 0 | 16941
2 | 3:45.67 | 2:56.60 | 16942 | 30201
3 | 6:42.52 | 2:42.15 | 30202 | 42366
4 | 9:24.67 | 2:33.73 | 42367 | 53914
5 | 11:58.65 | 3:00.12 | 53915 | 67426
6 | 14:59.02 | 3:33.25 | 67427 | 83426
7 | 18:32.27 | 2:43.05 | 83427 | 95656
8 | 21:15.32 | 2:18.28 | 95657 | 106034
9 | 23:33.60 | 2:20.47 | 106035 | 116581
10 | 25:54.32 | 2:17.65 | 116582 | 126921
11 | 28:12.22 | 3:01.13 | 126922 | 140509
12 | 31:13.35 | 2:52.52 | 140510 | 153461
13 | 34:06.12 | 3:00.68 | 153462 | 167029
14 | 37:07.05 | 2:23.70 | 167030 | 177824
15 | 39:31.00 | 2:35.62 | 177825 | 189511
16 | 42:06.62 | 2:49.08 | 189512 | 202194
17 | 44:55.70 | 2:26.52 | 202195 | 213196
18 | 47:22.47 | 2:09.00 | 213197 | 222871
19 | 49:31.47 | 2:39.08 | 222872 | 234804
20 | 52:10.55 | 3:13.42 | 234805 | 249321
21 | 55:24.22 | 3:02.05 | 249322 | 262976
22 | 58:26.27 | 3:40.30 | 262977 | 279506
23 | 62:06.57 | 2:50.45 | 279507 | 292301
24 | 64:57.27 | 3:23.33 | 292302 | 307559
25 | 68:20.60 | 2:36.15 | 307560 | 319274


Track 1

Filename D:\CD Flac Back-Up\(They Long To Be) Close To You.wav

Peak level 99.8 %
Track quality 100.0 %
Test CRC 93179707
Copy CRC 93179707
Accurately ripped (confidence 45) [44448B33]
Copy OK

Track 2

Filename D:\CD Flac Back-Up\Do You Know The Way To San Jose .wav

Peak level 99.8 %
Track quality 100.0 %
Test CRC CA0EFD9D
Copy CRC CA0EFD9D
Accurately ripped (confidence 45) [4921D18F]
Copy OK

Track 3

Filename D:\CD Flac Back-Up\Magic Moments.wav

Peak level 99.8 %
Track quality 100.0 %
Test CRC CDBE0146
Copy CRC CDBE0146
Accurately ripped (confidence 44) [FC7AB5E2]
Copy OK

Track 4

Filename D:\CD Flac Back-Up\The Story Of My Life.wav

Peak level 100.0 %
Track quality 100.0 %
Test CRC EA469455
Copy CRC EA469455
Accurately ripped (confidence 44) [C530A28E]
Copy OK

Track 5

Filename D:\CD Flac Back-Up\Raindrops Keep Fallin' On My Head.wav

Peak level 85.5 %
Track quality 100.0 %
Test CRC EDCEE6B4
Copy CRC EDCEE6B4
Accurately ripped (confidence 46) [2F699A18]
Copy OK

Track 6

Filename D:\CD Flac Back-Up\I Say A Little Prayer.wav

Peak level 97.0 %
Track quality 100.0 %
Test CRC 5FD64737
Copy CRC 5FD64737
Accurately ripped (confidence 45) [6E493D29]
Copy OK

Track 7

Filename D:\CD Flac Back-Up\Baby It's You.wav

Peak level 98.2 %
Track quality 100.0 %
Test CRC 9523B434
Copy CRC 9523B434
Accurately ripped (confidence 43) [357A516D]
Copy OK

Track 8

Filename D:\CD Flac Back-Up\Please Stay.wav

Peak level 99.8 %
Track quality 100.0 %
Test CRC 04CF5DA6
Copy CRC 04CF5DA6
Accurately ripped (confidence 44) [DA1ECEC9]
Copy OK

Track 9

Filename D:\CD Flac Back-Up\What's New Pussycat .wav

Peak level 90.2 %
Track quality 100.0 %
Test CRC 2E42CDAE
Copy CRC 2E42CDAE
Accurately ripped (confidence 44) [8ADF73C5]
Copy OK

Track 10

Filename D:\CD Flac Back-Up\Tower Of Strength.wav

Peak level 89.1 %
Track quality 100.0 %
Test CRC FC658E7D
Copy CRC FC658E7D
Accurately ripped (confidence 44) [E24F31FB]
Copy OK

Track 11

Filename D:\CD Flac Back-Up\(The Man Who Shot) Liberty Valance.wav

Peak level 100.0 %
Track quality 100.0 %
Test CRC 6D2923FA
Copy CRC 6D2923FA
Accurately ripped (confidence 44) [5459906C]
Copy OK

Track 12

Filename D:\CD Flac Back-Up\I Just Don't Know What To Do With Myself.wav

Peak level 99.6 %
Track quality 100.0 %
Test CRC 88E76FD3
Copy CRC 88E76FD3
Accurately ripped (confidence 44) [AB213B32]
Copy OK

Track 13

Filename D:\CD Flac Back-Up\I'll Never Fall In Love Again.wav

Peak level 99.8 %
Track quality 100.0 %
Test CRC EE3CA076
Copy CRC EE3CA076
Accurately ripped (confidence 44) [622C201B]
Copy OK

Track 14

Filename D:\CD Flac Back-Up\Nikki.wav

Peak level 91.9 %
Track quality 100.0 %
Test CRC DCE043F6
Copy CRC DCE043F6
Accurately ripped (confidence 44) [EA8DCCE8]
Copy OK

Track 15

Filename D:\CD Flac Back-Up\Mexican Divorce.wav

Peak level 89.2 %
Track quality 100.0 %
Test CRC 5D9B79F5
Copy CRC 5D9B79F5
Accurately ripped (confidence 44) [BC3357F0]
Copy OK

Track 16

Filename D:\CD Flac Back-Up\(There Goes) The Forgotten Man.wav

Peak level 99.8 %
Track quality 100.0 %
Test CRC 9460C433
Copy CRC 9460C433
Accurately ripped (confidence 43) [CBFC2C5E]
Copy OK

Track 17

Filename D:\CD Flac Back-Up\Blue On Blue.wav

Peak level 100.0 %
Track quality 100.0 %
Test CRC 339ED3DD
Copy CRC 339ED3DD
Accurately ripped (confidence 44) [F564E04A]
Copy OK

Track 18

Filename D:\CD Flac Back-Up\This Empty Place.wav

Peak level 71.8 %
Track quality 100.0 %
Test CRC 5A931FBF
Copy CRC 5A931FBF
Accurately ripped (confidence 44) [11513503]
Copy OK

Track 19

Filename D:\CD Flac Back-Up\Let The Music Play.wav

Peak level 99.8 %
Track quality 100.0 %
Test CRC BB6ACEAB
Copy CRC BB6ACEAB
Accurately ripped (confidence 43) [D35930DF]
Copy OK

Track 20

Filename D:\CD Flac Back-Up\Anyone Who Had A Heart.wav

Peak level 100.0 %
Track quality 100.0 %
Test CRC C46DC98E
Copy CRC C46DC98E
Accurately ripped (confidence 45) [A765F5C8]
Copy OK

Track 21

Filename D:\CD Flac Back-Up\A House Is Not A Home.wav

Peak level 99.8 %
Track quality 100.0 %
Test CRC 7679C162
Copy CRC 7679C162
Accurately ripped (confidence 44) [A652DB1B]
Copy OK

Track 22

Filename D:\CD Flac Back-Up\You'll Never Get To Heaven (If You Break My Heart).wav

Peak level 99.3 %
Track quality 100.0 %
Test CRC B55EE623
Copy CRC B55EE623
Accurately ripped (confidence 43) [A9313D9B]
Copy OK

Track 23

Filename D:\CD Flac Back-Up\Only Love Can Break A Heart.wav

Peak level 95.5 %
Track quality 100.0 %
Test CRC B05880DD
Copy CRC B05880DD
Accurately ripped (confidence 43) [8AE4E093]
Copy OK

Track 24

Filename D:\CD Flac Back-Up\Any Day Now (My Wild Beatiful Bird).wav

Peak level 94.9 %
Track quality 100.0 %
Test CRC F18C27D9
Copy CRC F18C27D9
Accurately ripped (confidence 44) [72FD0FF8]
Copy OK

Track 25

Filename D:\CD Flac Back-Up\Casino Royale.wav

Peak level 89.1 %
Track quality 99.8 %
Test CRC 1DBA8905
Copy CRC 1DBA8905
Accurately ripped (confidence 43) [FAB25884]
Copy OK


All tracks accurately ripped

No errors occurred

End of status report




EAC Log CD2

Exact Audio Copy V0.99 prebeta 5 from 4. May 2009

EAC extraction logfile from 30. May 2009, 15:45

Various / The Look Of Love - The Burt Bacharach Collection - CD 2

Used drive : HL-DT-STCD-RW GCE-8525B Adapter: 1 ID: 0

Read mode : Secure
Utilize accurate stream : Yes
Defeat audio cache : Yes
Make use of C2 pointers : Yes

Read offset correction : 6
Overread into Lead-In and Lead-Out : No
Fill up missing offset samples with silence : Yes
Delete leading and trailing silent blocks : No
Null samples used in CRC calculations : No
Used interface : Native Win32 interface for Win NT & 2000
Gap handling : Not detected, thus appended to previous track

Used output format : User Defined Encoder
Selected bitrate : 768 kBit/s
Quality : High
Add ID3 tag : No
Command line compressor : C:\Programmi\Exact Audio Copy\FLAC\FLAC.EXE
Additional command line options : -6 -V -T "ARTIST=%a" -T "TITLE=%t" -T "ALBUM=%g" -T "DATE=%y" -T "TRACKNUMBER=%n" -T "GENRE=%m" -T "COMMENT=%e" %s -o %d


TOC of the extracted CD

Track | Start | Length | Start sector | End sector
---------------------------------------------------------
1 | 0:00.00 | 4:11.43 | 0 | 18867
2 | 4:11.43 | 2:57.54 | 18868 | 32196
3 | 7:09.22 | 2:29.28 | 32197 | 43399
4 | 9:38.50 | 2:41.44 | 43400 | 55518
5 | 12:20.19 | 3:16.73 | 55519 | 70291
6 | 15:37.17 | 2:28.47 | 70292 | 81438
7 | 18:05.64 | 2:31.49 | 81439 | 92812
8 | 20:37.38 | 3:00.63 | 92813 | 106375
9 | 23:38.26 | 2:46.08 | 106376 | 118833
10 | 26:24.34 | 3:26.58 | 118834 | 134341
11 | 29:51.17 | 2:51.45 | 134342 | 147211
12 | 32:42.62 | 2:06.24 | 147212 | 156685
13 | 34:49.11 | 2:23.68 | 156686 | 167478
14 | 37:13.04 | 2:40.31 | 167479 | 179509
15 | 39:53.35 | 2:56.54 | 179510 | 192763
16 | 42:50.14 | 3:32.10 | 192764 | 208673
17 | 46:22.24 | 3:52.24 | 208674 | 226097
18 | 50:14.48 | 3:28.09 | 226098 | 241706
19 | 53:42.57 | 2:18.29 | 241707 | 252085
20 | 56:01.11 | 2:23.73 | 252086 | 262883
21 | 58:25.09 | 2:17.41 | 262884 | 273199
22 | 60:42.50 | 3:54.25 | 273200 | 290774
23 | 64:37.00 | 2:58.68 | 290775 | 304192
24 | 67:35.68 | 4:17.53 | 304193 | 323520
25 | 71:53.46 | 6:08.29 | 323521 | 351149


Track 22

Filename D:\CD Flac Back-Up\Arthur's Theme (The Best That You Can Do).wav

Peak level 93.3 %
Track quality 100.0 %
Test CRC D94A2AB8
Copy CRC D94A2AB8
Accurately ripped (confidence 45) [72BD8E65]
Copy OK


All tracks accurately ripped

No errors occurred

End of status report

------------------------------------------------------------

Exact Audio Copy V0.99 prebeta 5 from 4. May 2009

EAC extraction logfile from 30. May 2009, 16:01

Various / The Look Of Love - The Burt Bacharach Collection - CD 2

Used drive : HL-DT-STCD-RW GCE-8525B Adapter: 1 ID: 0

Read mode : Secure
Utilize accurate stream : Yes
Defeat audio cache : Yes
Make use of C2 pointers : Yes

Read offset correction : 6
Overread into Lead-In and Lead-Out : No
Fill up missing offset samples with silence : Yes
Delete leading and trailing silent blocks : No
Null samples used in CRC calculations : No
Used interface : Native Win32 interface for Win NT & 2000
Gap handling : Not detected, thus appended to previous track

Used output format : User Defined Encoder
Selected bitrate : 768 kBit/s
Quality : High
Add ID3 tag : No
Command line compressor : C:\Programmi\Exact Audio Copy\FLAC\FLAC.EXE
Additional command line options : -6 -V -T "ARTIST=%a" -T "TITLE=%t" -T "ALBUM=%g" -T "DATE=%y" -T "TRACKNUMBER=%n" -T "GENRE=%m" -T "COMMENT=%e" %s -o %d


TOC of the extracted CD

Track | Start | Length | Start sector | End sector
---------------------------------------------------------
1 | 0:00.00 | 4:11.43 | 0 | 18867
2 | 4:11.43 | 2:57.54 | 18868 | 32196
3 | 7:09.22 | 2:29.28 | 32197 | 43399
4 | 9:38.50 | 2:41.44 | 43400 | 55518
5 | 12:20.19 | 3:16.73 | 55519 | 70291
6 | 15:37.17 | 2:28.47 | 70292 | 81438
7 | 18:05.64 | 2:31.49 | 81439 | 92812
8 | 20:37.38 | 3:00.63 | 92813 | 106375
9 | 23:38.26 | 2:46.08 | 106376 | 118833
10 | 26:24.34 | 3:26.58 | 118834 | 134341
11 | 29:51.17 | 2:51.45 | 134342 | 147211
12 | 32:42.62 | 2:06.24 | 147212 | 156685
13 | 34:49.11 | 2:23.68 | 156686 | 167478
14 | 37:13.04 | 2:40.31 | 167479 | 179509
15 | 39:53.35 | 2:56.54 | 179510 | 192763
16 | 42:50.14 | 3:32.10 | 192764 | 208673
17 | 46:22.24 | 3:52.24 | 208674 | 226097
18 | 50:14.48 | 3:28.09 | 226098 | 241706
19 | 53:42.57 | 2:18.29 | 241707 | 252085
20 | 56:01.11 | 2:23.73 | 252086 | 262883
21 | 58:25.09 | 2:17.41 | 262884 | 273199
22 | 60:42.50 | 3:54.25 | 273200 | 290774
23 | 64:37.00 | 2:58.68 | 290775 | 304192
24 | 67:35.68 | 4:17.53 | 304193 | 323520
25 | 71:53.46 | 6:08.29 | 323521 | 351149


Track 1

Filename D:\CD Flac Back-Up\The Look Of Love.wav

Peak level 99.8 %
Track quality 100.0 %
Test CRC 8BC32905
Copy CRC 8BC32905
Accurately ripped (confidence 46) [38E172D5]
Copy OK

Track 2

Filename D:\CD Flac Back-Up\Walk On By.wav

Peak level 100.0 %
Track quality 100.0 %
Test CRC E4C5FE0D
Copy CRC E4C5FE0D
Accurately ripped (confidence 46) [D2835CA7]
Copy OK

Track 3

Filename D:\CD Flac Back-Up\Don't Go Breaking My Heart.wav

Peak level 89.6 %
Track quality 100.0 %
Test CRC 3C61DE0B
Copy CRC 3C61DE0B
Accurately ripped (confidence 46) [B7AE6C24]
Copy OK

Track 4

Filename D:\CD Flac Back-Up\(There's) Always Something There To Remind Me.wav

Peak level 89.5 %
Track quality 99.8 %
Test CRC B48F65AD
Copy CRC B48F65AD
Accurately ripped (confidence 46) [62055FE2]
Copy OK

Track 5

Filename D:\CD Flac Back-Up\What The World Needs Now Is Love.wav

Peak level 97.8 %
Track quality 99.8 %
Test CRC 4C5F3CB1
Copy CRC 4C5F3CB1
Accurately ripped (confidence 45) [5E50AAA6]
Copy OK

Track 6

Filename D:\CD Flac Back-Up\Reach Out For Me.wav

Peak level 92.7 %
Track quality 100.0 %
Test CRC 8B251DE3
Copy CRC 8B251DE3
Accurately ripped (confidence 45) [1500D999]
Copy OK

Track 7

Filename D:\CD Flac Back-Up\Wives And Lovers.wav

Peak level 100.0 %
Track quality 100.0 %
Test CRC 1E3CA6D4
Copy CRC 1E3CA6D4
Accurately ripped (confidence 44) [39006B66]
Copy OK

Track 8

Filename D:\CD Flac Back-Up\Twenty Four Hours From Tulsa.wav

Peak level 100.0 %
Track quality 100.0 %
Test CRC 21EEFC5E
Copy CRC 21EEFC5E
Accurately ripped (confidence 44) [1D49B9DA]
Copy OK

Track 9

Filename D:\CD Flac Back-Up\Make It Easy On Yourself.wav

Peak level 94.0 %
Track quality 100.0 %
Test CRC AC3CCA44
Copy CRC AC3CCA44
Accurately ripped (confidence 45) [6755178C]
Copy OK

Track 10

Filename D:\CD Flac Back-Up\Don't Make Me Over.wav

Peak level 94.4 %
Track quality 100.0 %
Test CRC E7F2339A
Copy CRC E7F2339A
Accurately ripped (confidence 45) [A447816B]
Copy OK

Track 11

Filename D:\CD Flac Back-Up\Trains And Boats And Planes.wav

Peak level 85.4 %
Track quality 100.0 %
Test CRC 353EEF3C
Copy CRC 353EEF3C
Accurately ripped (confidence 44) [8B6A0A60]
Copy OK

Track 12

Filename D:\CD Flac Back-Up\Be True To Yourself.wav

Peak level 84.9 %
Track quality 100.0 %
Test CRC 3A3E09D4
Copy CRC 3A3E09D4
Accurately ripped (confidence 44) [9E3E0AEE]
Copy OK

Track 13

Filename D:\CD Flac Back-Up\Made In Paris.wav

Peak level 94.0 %
Track quality 100.0 %
Test CRC C129B9E5
Copy CRC C129B9E5
Accurately ripped (confidence 44) [1CA803F0]
Copy OK

Track 14

Filename D:\CD Flac Back-Up\Alfie.wav

Peak level 100.0 %
Track quality 100.0 %
Test CRC 01C80973
Copy CRC 01C80973
Accurately ripped (confidence 44) [ED4A3D8D]
Copy OK

Track 15

Filename D:\CD Flac Back-Up\Wishin' And Hopin'.wav

Peak level 98.0 %
Track quality 100.0 %
Test CRC 8CF9175D
Copy CRC 8CF9175D
Accurately ripped (confidence 45) [2C8E849D]
Copy OK

Track 16

Filename D:\CD Flac Back-Up\This (Girl's) In Love With You.wav

Peak level 92.3 %
Track quality 100.0 %
Test CRC 94A052E1
Copy CRC 94A052E1
Accurately ripped (confidence 47) [3E7386FC]
Copy OK

Track 17

Filename D:\CD Flac Back-Up\Living Together, Growing Together.wav

Peak level 99.8 %
Track quality 100.0 %
Test CRC 69B9F05F
Copy CRC 69B9F05F
Accurately ripped (confidence 45) [036CD435]
Copy OK

Track 18

Filename D:\CD Flac Back-Up\Odds And Ends.wav

Peak level 94.2 %
Track quality 99.8 %
Test CRC D3750897
Copy CRC D3750897
Accurately ripped (confidence 45) [2354AA3F]
Copy OK

Track 19

Filename D:\CD Flac Back-Up\I Wake Up Crying.wav

Peak level 96.8 %
Track quality 100.0 %
Test CRC 53A7F5D4
Copy CRC 53A7F5D4
Accurately ripped (confidence 45) [A32BBBAB]
Copy OK

Track 20

Filename D:\CD Flac Back-Up\To Wait For Love.wav

Peak level 85.7 %
Track quality 100.0 %
Test CRC E4145D03
Copy CRC E4145D03
Accurately ripped (confidence 45) [43F8AF3D]
Copy OK

Track 21

Filename D:\CD Flac Back-Up\It's Love That Really Counts (In The Long Run).wav

Peak level 98.0 %
Track quality 100.0 %
Test CRC FC1492D2
Copy CRC FC1492D2
Accurately ripped (confidence 45) [947B5F0C]
Copy OK

Track 22

Filename D:\CD Flac Back-Up\Arthur's Theme (The Best That You Can Do).wav

Peak level 93.3 %
Track quality 100.0 %
Test CRC D94A2AB8
Copy CRC D94A2AB8
Accurately ripped (confidence 45) [72BD8E65]
Copy OK

Track 23

Filename D:\CD Flac Back-Up\The Windows Of The World.wav

Peak level 89.7 %
Track quality 100.0 %
Test CRC 966F3E12
Copy CRC 966F3E12
Accurately ripped (confidence 43) [F7E53A5D]
Copy OK

Track 24

Filename D:\CD Flac Back-Up\That's What Friends Are For.wav

Peak level 100.0 %
Track quality 100.0 %
Test CRC 5A47B73B
Copy CRC 5A47B73B
Accurately ripped (confidence 44) [835C193E]
Copy OK

Track 25

Filename D:\CD Flac Back-Up\God Give Me Strength.wav

Peak level 91.9 %
Track quality 100.0 %
Test CRC A0D38102
Copy CRC A0D38102
Accurately ripped (confidence 42) [C344FDC2]
Copy OK


All tracks accurately ripped

No errors occurred

End of status report




Please no mirrors




Password: vavo


Download

ADVERTISING » Very Fast Download!



« ADVERTISING




Posted By: atesilter Date: 24 Jan 2010 14:45:15
Dear vavo,
Thank you so much for sharing.
Posted By: Blue61 Date: 25 Jan 2010 01:03:47
Thank you very much from Spain.
Muchas gracias !!!
Posted By: rrika Date: 25 Jan 2010 07:22:06
I was looking for this one on lossless a long time ago. A great thanks from Barranquilla, Colombia!
Posted By: Alsu Date: 26 Jan 2010 08:34:13
Thank you for the great post!
Posted By: humyaimakmak Date: 02 Feb 2010 13:32:05
Many thanks!!!
Posted By: bazza02 Date: 17 Mar 2010 02:47:59
Thanks vavo