Loading...

The Temptations - To Be Continued... (1986) {Motown}

Posted By : tiburon | Date : 08 Jan 2011 14:00:07 | Comments : 2 |
|



The Temptations - To Be Continued... (1986) {Motown}
EAC 1.0 | FLAC tracks level 8 | Cue+Log+M3U | Full Scans 600dpi | 304MB + 5% Recovery
Genre: Soul,Funk

The Temptations always put out exceptional sounds, and this CD is just another example of how sensational this group is!


Track List

01. Lady Soul 5:05
02. Message To The World 4:24
03. To Be Continued 5:05
04. Put Us Together Again 3:56
05. Someone 4:39
06. Girls (They Like It) 4:38
07. More Love, Your Love 4:22
08. A Fine Mess 4:07
09. You're The One 4:43
10. Love Me Right 4:18

musicians

Otis Williams
Melvin Franklin
Richard Street
Ron Tyson
Ali-Ollie Woodson

additional musicians

Robbie Buchanan - keyboards and synths
Alan Pasqua - keyboards and synths
Brad Buxer - keyboards and synths
Bill Elliot - keyboards and synths
Steve LeGassick - keyboards and synths
Paul Fox - keyboards and synths
Ali - Ollie Woodson - keyboards and synths
Rick Chudacoff - keyboards and synths
Benjamin Wright - keyboards and synths
Dan Huff - guitar
Wally Ali - guitar
Neil Stubenhaus - bass
John Robinson - drums
Vinnie Colaiuta - drums
Peter Bunetta - drums
Paulinho Da Costa - percussion
Jerry Peterson - E.W.I. solo on track 6
Darrel Leonard - E.W.I. on track 7
David Sanborn - alto sax on track 3

Produced by Peter Bunetta and Rick Chudacoff

EAC Logfile

Exact Audio Copy V1.0 beta 1 from 15. November 2010

EAC extraction logfile from 26. December 2010, 18:50

The Temptations / To Be Continued...

Used drive : ATAPI iHAS424 Y Adapter: 0 ID: 3

Read mode : Secure
Utilize accurate stream : Yes
Defeat audio cache : Yes
Make use of C2 pointers : No

Read offset correction : 48
Overread into Lead-In and Lead-Out : No
Fill up missing offset samples with silence : Yes
Delete leading and trailing silent blocks : No
Null samples used in CRC calculations : Yes
Used interface : Native Win32 interface for Win NT & 2000
Gap handling : Appended to previous track

Used output format : User Defined Encoder
Selected bitrate : 768 kBit/s
Quality : High
Add ID3 tag : No
Command line compressor : C:\Program Files\Exact Audio Copy\Flac\flac.exe
Additional command line options : -8 -V -T "ARTIST=%a" -T "TITLE=%t" -T "ALBUM=%g" -T "DATE=%y" -T "TRACKNUMBER=%n" -T "TOTALTRACKS=%x" -T "GENRE=%m" -T "ALBUMARTIST=%v" -T "ALBUM ARTIST=%v" -T "COMMENT=EAC Secure Mode, Test & Copy, AccurateRip, FLAC -8" %s


TOC of the extracted CD

Track | Start | Length | Start sector | End sector
---------------------------------------------------------
1 | 0:00.00 | 5:05.71 | 0 | 22945
2 | 5:05.71 | 4:24.66 | 22946 | 42811
3 | 9:30.62 | 5:05.05 | 42812 | 65691
4 | 14:35.67 | 3:56.15 | 65692 | 83406
5 | 18:32.07 | 4:39.38 | 83407 | 104369
6 | 23:11.45 | 4:38.22 | 104370 | 125241
7 | 27:49.67 | 4:22.48 | 125242 | 144939
8 | 32:12.40 | 4:07.74 | 144940 | 163538
9 | 36:20.39 | 4:43.02 | 163539 | 184765
10 | 41:03.41 | 4:18.59 | 184766 | 204174


Track 1

Filename G:\Uploads\The Temptations - To Be Continued (1986) [FLAC]\01 - Lady Soul.wav

Pre-gap length 0:00:02.00

Peak level 100.0 %
Extraction speed 2.7 X
Track quality 100.0 %
Test CRC AFB10C7B
Copy CRC AFB10C7B
Accurately ripped (confidence 1) [A4B18D13]
Copy OK

Track 2

Filename G:\Uploads\The Temptations - To Be Continued (1986) [FLAC]\02 - Message To The World.wav

Pre-gap length 0:00:02.21

Peak level 100.0 %
Extraction speed 2.9 X
Track quality 100.0 %
Test CRC 230024DC
Copy CRC 230024DC
Accurately ripped (confidence 1) [BB339A9A]
Copy OK

Track 3

Filename G:\Uploads\The Temptations - To Be Continued (1986) [FLAC]\03 - To Be Continued.wav

Pre-gap length 0:00:00.67

Peak level 99.9 %
Extraction speed 3.2 X
Track quality 100.0 %
Test CRC 8E7FF45F
Copy CRC 8E7FF45F
Accurately ripped (confidence 1) [3B512EE1]
Copy OK

Track 4

Filename G:\Uploads\The Temptations - To Be Continued (1986) [FLAC]\04 - Put Us Together Again.wav

Pre-gap length 0:00:04.12

Peak level 92.8 %
Extraction speed 3.3 X
Track quality 100.0 %
Test CRC 46663C59
Copy CRC 46663C59
Accurately ripped (confidence 1) [DA8F7397]
Copy OK

Track 5

Filename G:\Uploads\The Temptations - To Be Continued (1986) [FLAC]\05 - Someone.wav

Pre-gap length 0:00:02.14

Peak level 97.2 %
Extraction speed 3.5 X
Track quality 100.0 %
Test CRC F53C6C24
Copy CRC F53C6C24
Accurately ripped (confidence 1) [3A8D9E41]
Copy OK

Track 6

Filename G:\Uploads\The Temptations - To Be Continued (1986) [FLAC]\06 - Girls (They Like It).wav

Pre-gap length 0:00:03.04

Peak level 99.1 %
Extraction speed 3.4 X
Track quality 99.9 %
Test CRC E4C51F58
Copy CRC E4C51F58
Accurately ripped (confidence 1) [64CFEBE0]
Copy OK

Track 7

Filename G:\Uploads\The Temptations - To Be Continued (1986) [FLAC]\07 - More Love, Your Love.wav

Pre-gap length 0:00:01.08

Peak level 98.9 %
Extraction speed 3.5 X
Track quality 99.9 %
Test CRC 25C2D166
Copy CRC 25C2D166
Accurately ripped (confidence 1) [27FCC10A]
Copy OK

Track 8

Filename G:\Uploads\The Temptations - To Be Continued (1986) [FLAC]\08 - A Fine Mess.wav

Peak level 100.0 %
Extraction speed 4.0 X
Track quality 100.0 %
Test CRC 48183D1C
Copy CRC 48183D1C
Accurately ripped (confidence 1) [07E9317C]
Copy OK

Track 9

Filename G:\Uploads\The Temptations - To Be Continued (1986) [FLAC]\09 - You're The One.wav

Pre-gap length 0:00:04.29

Peak level 99.9 %
Extraction speed 4.3 X
Track quality 100.0 %
Test CRC A8FA5F21
Copy CRC A8FA5F21
Accurately ripped (confidence 1) [4F13CECB]
Copy OK

Track 10

Filename G:\Uploads\The Temptations - To Be Continued (1986) [FLAC]\10 - Love Me Right.wav

Pre-gap length 0:00:03.63

Peak level 90.7 %
Extraction speed 4.4 X
Track quality 100.0 %
Test CRC 857F4DF0
Copy CRC 857F4DF0
Accurately ripped (confidence 1) [72586835]
Copy OK


All tracks accurately ripped

No errors occurred

End of status report

==== Log checksum 7E712F2AFFC63F6408DACE4BC7E41BD0C7CB6A99B06187DA30B74150E4125F3E ====





The Files Are Interchangeable

Visit My Blog

ADVERTISING » Very Fast Download!



« ADVERTISING




Posted By: firepower Date: 09 Jan 2011 02:22:21
Didn't have a copy of this one. I can't let the Temptations slide past, especially a lossless copy. :)

Thanks!
Posted By: ShowView Date: 09 Jan 2011 09:15:15
Great. Thank you.