Loading...

Various Artists - The Very Best Of Pop Music 1994-1995 (1996)

Posted By : softinka07 | Date : 18 Nov 2009 11:45:50 | Comments : 4 |
|



Various Artists - The Very Best Of Pop Music 1994-1995 (1996)
2 CD | EAC FLAC + CUE + Log | 923 Mb
Pop | Label: Egmont Music Club | Country: Denmark


Tracklist CD1
01. Me & My - Dub-I-Dub
02. Stakka Bo - Here We Go
03. Glenmark - Eriksson/Strцmstedt
04. Mike & The Mechanics - Over My Shoulder
05. Connells - 74-75
06. Mike Flowers Pops - Wonderwall
07. Robyn - Do You Know (What It Takes)
08. Soul II Soul - Love Enuff
09. Tina Arena - Heaven Help My Heart
10. Me, She & Her - I Count The Minutes
11. D:Ream - Shoot Me With Your Love
12. E-Type - Set The World On Fire
13. Army Of Lovers - Lit De Parade
14. Rednex - Cotton Eye Joe
15. U96 - Movin'
16. Belinda Carlisle - Big Scary Animal
17. The Munich Philharmonic Orchestra feat. Nazareth - Love Hurts

EAC LOG

Exact Audio Copy V0.99 prebeta 4 from 23. January 2008

EAC extraction logfile from 13. October 2008, 15:48

Various / The Very Best Of Pop Music 1994-95 CD 1

Used drive : PLEXTOR CD-R PX-230A Adapter: 1 ID: 1

Read mode : Burst

Read offset correction : 738
Overread into Lead-In and Lead-Out : No
Fill up missing offset samples with silence : Yes
Delete leading and trailing silent blocks : No
Null samples used in CRC calculations : Yes
Used interface : Native Win32 interface for Win NT & 2000
Gap handling : Appended to previous track

Used output format : User Defined Encoder
Selected bitrate : 320 kBit/s
Quality : High
Add ID3 tag : No
Command line compressor : C:\Program Files (x86)\FLAC\flac.exe
Additional command line options : -8 -V -T "ARTIST=%a" -T "TITLE=%t" -T "ALBUM=%g" -T "DATE=%y" -T "TRACKNUMBER=%n" -T "GENRE=%m" -T "COMMENT=EAC Flac 1.2.1b -8" %s


TOC of the extracted CD

Track | Start | Length | Start sector | End sector
---------------------------------------------------------
1 | 0:00.00 | 3:22.00 | 0 | 15149
2 | 3:22.00 | 3:53.15 | 15150 | 32639
3 | 7:15.15 | 3:37.12 | 32640 | 48926
4 | 10:52.27 | 3:38.15 | 48927 | 65291
5 | 14:30.42 | 4:31.70 | 65292 | 85686
6 | 19:02.37 | 2:45.03 | 85687 | 98064
7 | 21:47.40 | 3:41.62 | 98065 | 114701
8 | 25:29.27 | 3:40.08 | 114702 | 131209
9 | 29:09.35 | 5:19.55 | 131210 | 155189
10 | 34:29.15 | 3:33.40 | 155190 | 171204
11 | 38:02.55 | 3:53.27 | 171205 | 188706
12 | 41:56.07 | 3:44.33 | 188707 | 205539
13 | 45:40.40 | 3:26.15 | 205540 | 221004
14 | 49:06.55 | 3:11.37 | 221005 | 235366
15 | 52:18.17 | 3:43.58 | 235367 | 252149
16 | 56:02.00 | 4:14.15 | 252150 | 271214
17 | 60:16.15 | 4:04.45 | 271215 | 289559


Track 1

Filename C:\FLAC\01 - Me & My - Dub-I-Dub.wav

Pre-gap length 0:00:02.00

Peak level 100.0 %
Test CRC B1403AB1
Copy CRC B1403AB1
Accurately ripped (confidence 2) [D39236FC]
Copy OK

Track 2

Filename C:\FLAC\02 - Stakka Bo - Here We Go.wav

Pre-gap length 0:00:01.11

Peak level 97.4 %
Test CRC E82126F8
Copy CRC E82126F8
Accurately ripped (confidence 2) [AA572611]
Copy OK

Track 3

Filename C:\FLAC\03 - Glenmark - Eriksson,Strцmstedt.wav

Pre-gap length 0:00:00.01

Peak level 100.0 %
Test CRC 878AFB5E
Copy CRC 878AFB5E
Accurately ripped (confidence 2) [B94A0782]
Copy OK

Track 4

Filename C:\FLAC\04 - Mike & The Mechanics - Over My Shoulder.wav

Pre-gap length 0:00:01.09

Peak level 100.0 %
Test CRC D3BD6B6D
Copy CRC D3BD6B6D
Accurately ripped (confidence 2) [DCEF1456]
Copy OK

Track 5

Filename C:\FLAC\05 - Connells - 74-75.wav

Pre-gap length 0:00:00.01

Peak level 100.0 %
Test CRC D76C0FCE
Copy CRC D76C0FCE
Accurately ripped (confidence 2) [AFF2EC28]
Copy OK

Track 6

Filename C:\FLAC\06 - Mike Flowers Pops - Wonderwall.wav

Pre-gap length 0:00:01.24

Peak level 100.0 %
Test CRC 286446B6
Copy CRC 286446B6
Accurately ripped (confidence 2) [FCAD1E07]
Copy OK

Track 7

Filename C:\FLAC\07 - Robyn - Do You Know (What It Takes).wav

Pre-gap length 0:00:01.06

Peak level 100.0 %
Test CRC 93FB641E
Copy CRC 93FB641E
Accurately ripped (confidence 2) [B2F0F391]
Copy OK

Track 8

Filename C:\FLAC\08 - Soul II Soul - Love Enuff.wav

Peak level 97.8 %
Test CRC 58D9AA76
Copy CRC 58D9AA76
Accurately ripped (confidence 2) [CD9005DB]
Copy OK

Track 9

Filename C:\FLAC\09 - Tina Arena - Heaven Help My Heart.wav

Pre-gap length 0:00:01.01

Peak level 99.9 %
Test CRC 09F48A62
Copy CRC 09F48A62
Accurately ripped (confidence 2) [BB9FA365]
Copy OK

Track 10

Filename C:\FLAC\10 - Me, She & Her - I Count The Minutes.wav

Pre-gap length 0:00:00.74

Peak level 99.9 %
Test CRC E7D3D7C1
Copy CRC E7D3D7C1
Accurately ripped (confidence 2) [061889C8]
Copy OK

Track 11

Filename C:\FLAC\11 - D-Ream - Shoot Me With Your Love.wav

Pre-gap length 0:00:01.18

Peak level 100.0 %
Test CRC AB833FFA
Copy CRC AB833FFA
Accurately ripped (confidence 2) [3BA8CAF1]
Copy OK

Track 12

Filename C:\FLAC\12 - E-Type - Set The World On Fire.wav

Pre-gap length 0:00:01.23

Peak level 98.0 %
Test CRC 374242A6
Copy CRC 374242A6
Accurately ripped (confidence 2) [4553682C]
Copy OK

Track 13

Filename C:\FLAC\13 - Army Of Lovers - Lit De Parade.wav

Pre-gap length 0:00:01.37

Peak level 99.9 %
Test CRC 4AE711BC
Copy CRC 4AE711BC
Accurately ripped (confidence 2) [21F41A92]
Copy OK

Track 14

Filename C:\FLAC\14 - Rednex - Cotton Eye Joe.wav

Pre-gap length 0:00:01.05

Peak level 100.0 %
Test CRC 005AE883
Copy CRC 005AE883
Accurately ripped (confidence 2) [65400426]
Copy OK

Track 15

Filename C:\FLAC\15 - U96 - Movin'.wav

Peak level 100.0 %
Test CRC 37AF8FA9
Copy CRC 37AF8FA9
Accurately ripped (confidence 2) [7AA1CE5A]
Copy OK

Track 16

Filename C:\FLAC\16 - Belinda Carlisle - Big Scary Animal.wav

Pre-gap length 0:00:01.20

Peak level 99.9 %
Test CRC A1BDB506
Copy CRC A1BDB506
Accurately ripped (confidence 2) [BA4A70A6]
Copy OK

Track 17

Filename C:\FLAC\17 - The Munich Philharmonic Orchestra feat. Nazareth - Love Hurts.wav

Pre-gap length 0:00:00.73

Peak level 99.9 %
Test CRC 8D3FBB75
Copy CRC 8D3FBB75
Track not present in AccurateRip database
Copy OK


16 track(s) accurately ripped
1 track(s) not present in the AccurateRip database

Some tracks could not be verified as accurate

No errors occurred

End of status report



Tracklist CD2
01. Sound Of Seduction - Welcome (Into My World)
02. Shaggy feat. Rayvon - In The Summertime
03. Everything But The Girl - Missing (Todd Terry Club Mix)
04. Joan Osborne - One Of Us
05. Jamie Walters - Hold On
06. Sophie B. Hawkins - As I Lay Me Down
07. Edwyn Collins - A Girl Like You
08. Backstreet Boys - I'll Never Break Your Heart
09. Cyndi Lauper - Hey Now (Girls Just Wanna Have Fun '94)
10. Inner Circle - Games People Play
11. Fool's Garden - Lemon Tree
12. Michelle Gayle - Sweetness
13. Des'ree - You Gotta Be
14. Gary Moore - Need Your Love So Bad
15. Sandra - Nights In White Satin
16. Pretenders - I'll Stand By You
17. Dina Carroll - The Perfect Year

EAC LOG
Exact Audio Copy V0.99 prebeta 4 from 23. January 2008

EAC extraction logfile from 13. October 2008, 17:01

Various / The Very Best Of Pop Music 1994-95 CD 2

Used drive : PLEXTOR CD-R PX-230A Adapter: 1 ID: 1

Read mode : Burst

Read offset correction : 738
Overread into Lead-In and Lead-Out : No
Fill up missing offset samples with silence : Yes
Delete leading and trailing silent blocks : No
Null samples used in CRC calculations : Yes
Used interface : Native Win32 interface for Win NT & 2000
Gap handling : Appended to previous track

Used output format : User Defined Encoder
Selected bitrate : 320 kBit/s
Quality : High
Add ID3 tag : No
Command line compressor : C:\Program Files (x86)\FLAC\flac.exe
Additional command line options : -8 -V -T "ARTIST=%a" -T "TITLE=%t" -T "ALBUM=%g" -T "DATE=%y" -T "TRACKNUMBER=%n" -T "GENRE=%m" -T "COMMENT=EAC Flac 1.2.1b -8" %s


TOC of the extracted CD

Track | Start | Length | Start sector | End sector
---------------------------------------------------------
1 | 0:00.00 | 4:11.25 | 0 | 18849
2 | 4:11.25 | 3:47.05 | 18850 | 35879
3 | 7:58.30 | 3:54.42 | 35880 | 53471
4 | 11:52.72 | 4:16.68 | 53472 | 72739
5 | 16:09.65 | 4:24.55 | 72740 | 92594
6 | 20:34.45 | 4:03.67 | 92595 | 110886
7 | 24:38.37 | 3:55.55 | 110887 | 128566
8 | 28:34.17 | 4:24.38 | 128567 | 148404
9 | 32:58.55 | 3:40.00 | 148405 | 164904
10 | 36:38.55 | 3:25.65 | 164905 | 180344
11 | 40:04.45 | 3:10.70 | 180345 | 194664
12 | 43:15.40 | 3:39.52 | 194665 | 211141
13 | 46:55.17 | 3:57.20 | 211142 | 228936
14 | 50:52.37 | 4:05.65 | 228937 | 247376
15 | 54:58.27 | 3:31.03 | 247377 | 263204
16 | 58:29.30 | 3:59.20 | 263205 | 281149
17 | 62:28.50 | 3:44.25 | 281150 | 297974


Track 1

Filename C:\FLAC\01 - Sound Of Seduction - Welcome (Into My World).wav

Pre-gap length 0:00:02.00

Peak level 100.0 %
Test CRC D8BA5393
Copy CRC D8BA5393
Accurately ripped (confidence 2) [682FD16C]
Copy OK

Track 2

Filename C:\FLAC\02 - Shaggy feat. Rayvon - In The Summertime.wav

Pre-gap length 0:00:01.06

Peak level 99.9 %
Test CRC F31A6566
Copy CRC F31A6566
Accurately ripped (confidence 2) [200A3098]
Copy OK

Track 3

Filename C:\FLAC\03 - Everything But The Girl - Missing (Todd Terry Club Mix).wav

Pre-gap length 0:00:01.31

Peak level 100.0 %
Test CRC CA0C493F
Copy CRC CA0C493F
Accurately ripped (confidence 2) [8199A786]
Copy OK

Track 4

Filename C:\FLAC\04 - Joan Osborne - One Of Us.wav

Timing problem 0:00:42

Peak level 100.0 %
Test CRC DEE7BF1E
Copy CRC DEE7BF1E
Accurately ripped (confidence 2) [75F55021]
Copy finished

Track 5

Filename C:\FLAC\05 - Jamie Walters - Hold On.wav

Pre-gap length 0:00:01.01

Peak level 100.0 %
Test CRC C493E7FC
Copy CRC C493E7FC
Accurately ripped (confidence 2) [BE9F1908]
Copy OK

Track 6

Filename C:\FLAC\06 - Sophie B. Hawkins - As I Lay Me Down.wav

Pre-gap length 0:00:00.01

Peak level 100.0 %
Test CRC 1A44893B
Copy CRC 1A44893B
Accurately ripped (confidence 2) [A63C4B34]
Copy OK

Track 7

Filename C:\FLAC\07 - Edwyn Collins - A Girl Like You.wav

Pre-gap length 0:00:01.33

Peak level 100.0 %
Test CRC 9645EF71
Copy CRC 9645EF71
Accurately ripped (confidence 2) [0816DC84]
Copy OK

Track 8

Filename C:\FLAC\08 - Backstreet Boys - I'll Never Break Your Heart.wav

Pre-gap length 0:00:01.16

Peak level 100.0 %
Test CRC 96D28D85
Copy CRC 96D28D85
Accurately ripped (confidence 2) [576776AE]
Copy OK

Track 9

Filename C:\FLAC\09 - Cyndi Lauper - Hey Now (Girls Just Wanna Have Fun '94).wav

Pre-gap length 0:00:01.39

Peak level 98.7 %
Test CRC 0D28C272
Copy CRC 0D28C272
Accurately ripped (confidence 2) [352F6D35]
Copy OK

Track 10

Filename C:\FLAC\10 - Inner Circle - Games People Play.wav

Pre-gap length 0:00:01.36

Peak level 100.0 %
Test CRC 3289BAD9
Copy CRC 3289BAD9
Accurately ripped (confidence 2) [E72CD423]
Copy OK

Track 11

Filename C:\FLAC\11 - Fool's Garden - Lemon Tree.wav

Pre-gap length 0:00:01.39

Peak level 99.6 %
Test CRC 158AF826
Copy CRC 158AF826
Accurately ripped (confidence 2) [EC625360]
Copy OK

Track 12

Filename C:\FLAC\12 - Michelle Gayle - Sweetness.wav

Pre-gap length 0:00:00.01

Peak level 100.0 %
Test CRC 2EAB22D3
Copy CRC 2EAB22D3
Accurately ripped (confidence 2) [633FBCBC]
Copy OK

Track 13

Filename C:\FLAC\13 - Des'ree - You Gotta Be.wav

Pre-gap length 0:00:01.28

Peak level 99.9 %
Test CRC BB39F6D8
Copy CRC BB39F6D8
Accurately ripped (confidence 2) [F0F6502D]
Copy OK

Track 14

Filename C:\FLAC\14 - Gary Moore - Need Your Love So Bad.wav

Pre-gap length 0:00:01.26

Peak level 100.0 %
Test CRC E0DDFF02
Copy CRC E0DDFF02
Accurately ripped (confidence 2) [58FBFDBB]
Copy OK

Track 15

Filename C:\FLAC\15 - Sandra - Nights In White Satin.wav

Pre-gap length 0:00:01.53

Peak level 100.0 %
Test CRC 3CDF2360
Copy CRC 3CDF2360
Accurately ripped (confidence 2) [854EDC39]
Copy OK

Track 16

Filename C:\FLAC\16 - Pretenders - I'll Stand By You.wav

Pre-gap length 0:00:01.39

Peak level 100.0 %
Test CRC 9C02EB02
Copy CRC 9C02EB02
Accurately ripped (confidence 2) [1F9324AC]
Copy OK

Track 17

Filename C:\FLAC\17 - Dina Carroll - The Perfect Year.wav

Pre-gap length 0:00:01.06

Peak level 99.9 %
Test CRC 6EF2F048
Copy CRC 6EF2F048
Accurately ripped (confidence 2) [05C40DE2]
Copy OK


All tracks accurately ripped

No errors occurred

End of status report




http://uploading.com/files/15999md4/V.A-T-Very-Best-Of-Pop-Music-94-95-2CD.part01.rar/
http://uploading.com/files/bm7188e9/V.A-T-Very-Best-Of-Pop-Music-94-95-2CD.part02.rar/
http://uploading.com/files/6m68c8a6/V.A-T-Very-Best-Of-Pop-Music-94-95-2CD.part03.rar/
http://uploading.com/files/c998ed42/V.A-T-Very-Best-Of-Pop-Music-94-95-2CD.part04.rar/
http://uploading.com/files/f5e9mead/V.A-T-Very-Best-Of-Pop-Music-94-95-2CD.part05.rar/
http://uploading.com/files/f5b1444c/V.A-T-Very-Best-Of-Pop-Music-94-95-2CD.part06.rar/
http://uploading.com/files/69edabf7/V.A-T-Very-Best-Of-Pop-Music-94-95-2CD.part07.rar/
http://uploading.com/files/88ec6c87/V.A-T-Very-Best-Of-Pop-Music-94-95-2CD.part08.rar/
http://uploading.com/files/4399372f/V.A-T-Very-Best-Of-Pop-Music-94-95-2CD.part09.rar/
http://uploading.com/files/11bba869/V.A-T-Very-Best-Of-Pop-Music-94-95-2CD.part10.rar/

http://hotfile.com/dl/17625288/caadf74/V.A-T-Very-Best-Of-Pop-Music-94-95-2CD.part01.rar.html
http://hotfile.com/dl/17625360/5cde35f/V.A-T-Very-Best-Of-Pop-Music-94-95-2CD.part02.rar.html
http://hotfile.com/dl/17625426/49e7046/V.A-T-Very-Best-Of-Pop-Music-94-95-2CD.part03.rar.html
http://hotfile.com/dl/17628193/7c2cc00/V.A-T-Very-Best-Of-Pop-Music-94-95-2CD.part04.rar.html
http://hotfile.com/dl/17625508/28e8e84/V.A-T-Very-Best-Of-Pop-Music-94-95-2CD.part05.rar.html
http://hotfile.com/dl/17625535/0fa32dd/V.A-T-Very-Best-Of-Pop-Music-94-95-2CD.part06.rar.html
http://hotfile.com/dl/17625609/3e45032/V.A-T-Very-Best-Of-Pop-Music-94-95-2CD.part07.rar.html
http://hotfile.com/dl/17625644/81551a1/V.A-T-Very-Best-Of-Pop-Music-94-95-2CD.part08.rar.html
http://hotfile.com/dl/17625721/2d8318b/V.A-T-Very-Best-Of-Pop-Music-94-95-2CD.part09.rar.html
http://hotfile.com/dl/17625752/54d06f1/V.A-T-Very-Best-Of-Pop-Music-94-95-2CD.part10.rar.html

http://rapidshare.com/files/306522054/V.A-T-Very-Best-Of-Pop-Music-94-95-2CD.part01.rar
http://rapidshare.com/files/306533975/V.A-T-Very-Best-Of-Pop-Music-94-95-2CD.part02.rar
http://rapidshare.com/files/306542886/V.A-T-Very-Best-Of-Pop-Music-94-95-2CD.part03.rar
http://rapidshare.com/files/306554877/V.A-T-Very-Best-Of-Pop-Music-94-95-2CD.part04.rar
http://rapidshare.com/files/306567513/V.A-T-Very-Best-Of-Pop-Music-94-95-2CD.part05.rar
http://rapidshare.com/files/306577807/V.A-T-Very-Best-Of-Pop-Music-94-95-2CD.part06.rar
http://rapidshare.com/files/306589123/V.A-T-Very-Best-Of-Pop-Music-94-95-2CD.part07.rar
http://rapidshare.com/files/306598223/V.A-T-Very-Best-Of-Pop-Music-94-95-2CD.part08.rar
http://rapidshare.com/files/306607485/V.A-T-Very-Best-Of-Pop-Music-94-95-2CD.part09.rar
http://rapidshare.com/files/306607983/V.A-T-Very-Best-Of-Pop-Music-94-95-2CD.part10.rar

No Mirrror, please


Various Artists - The Very Best Of Pop Music 1967-1968 (1999)
Various Artists - The Very Best Of Pop Music 1968-1969 (1997)
Various Artists - The Very Best Of Pop Music 1969-1970 (1997)
Various Artists - The Very Best Of Pop Music 1985-1986 (1997)
Various Artists - The Very Best Of Pop Music 1986-1987 (1996)
Various Artists - The Very Best Of Pop Music 1987-1988 (1996)
Various Artists - The Very Best Of Pop Music 1988-1989 (1996)
Various Artists - The Very Best Of Pop Music 1989-1990 (1995)
Various Artists - The Very Best Of Pop Music 1990-1991 (1996)
Various Artists - The Very Best Of Pop Music 1991-1992 (1995)
Various Artists - The Very Best Of Pop Music 1992-1993 (1997)
Various Artists - The Very Best Of Pop Music 1993-1994 (1997)


ADVERTISING » Very Fast Download!



« ADVERTISING




Posted By: lapii Date: 23 Nov 2009 23:34:33
thank you!
Posted By: emberglow Date: 30 Nov 2009 19:50:09
These are fine-sounding compilations, many thanks for sharing them. Do you have any that cover the 1970s?
Posted By: AlexRich Date: 07 Sep 2011 15:36:39
All the links are dead !
Posted By: wwwxxx Date: 27 Oct 2012 17:31:05
Thanks! But the links are dead :(.
Can u post some more please?