Loading...

Bessie Smith - The Complete Recordings Vol. 4 (1993)

Posted By : musicjunky | Date : 02 Feb 2010 22:52:40 | Comments : 9 |
|



Bessie Smith - The Complete Recordings Vol. 4 (1993)
EAC Rip | FLAC + Log + Cue | Scans | 490 MB + 18 MB + 51 MB | HF + RS | 5% recovery
Label: Columbia/Legacy C2K 52838 | 2 Discs | Genre: Blues

The fourth of five volumes (the first four are two-CD sets) that reissue all of Bessie Smith's recordings traces her career from a period when her popularity was at its height down to just six songs away from the halt of her recording career. But although her commercial fortunes might have slipped, Bessie Smith never declined and these later recordings are consistently powerful. The two-part "Empty Bed Blues" and "Nobody Knows You When You're Down and Out" (hers is the original version) are true classics and none of the other 40 songs (including the double-entendre "Kitchen Man") are throwaways. With strong accompaniment during some performances by trombonist Charlie Green, guitarist Eddie Lang, Clarence Williams's band and on ten songs (eight of which are duets) the masterful pianist James P. Johnson, this volume (as with the others) is quite essential.

AMG

Tracks:
DISC 1
01 - Standin' In The Rain Blues
02 - It Won't Be You
03 - Spider Man Blues
04 - Empty Bed Blues (Part 1)
05 - Empty Bed Blues (Part 2)
06 - Put It Right Here (Or Keep It Out There)
07 - Yes Indeed He Do!
08 - Devil's Gonna Git You
09 - You Ought To Be Ashamed
10 - Washwoman's Blues
11 - Slow And Easy Man
12 - Poor Man's Blues
13 - Please Help Me Get Him Out Of My Mind
14 - Me And My Gin
15 - I'm Wild About That Thing
16 - You've Got To Give Me Some
17 - Kitchen Man
18 - I've Got What It Takes (But It Breaks My Heart To Give It Away)
19 - Nobody Knows You When You're Down And Out
20 - Take It Right Back ('Cause I Don't Want It Here)

EAC LOG
Exact Audio Copy V0.99 prebeta 5 from 4. May 2009

EAC extraction logfile from 31. January 2010, 16:45

Bessie Smith / The Complete Recordings Vol. 4 (Disc 1)

Used drive : Memorex 52MAXX 3252AJ1v2 Adapter: 0 ID: 0

Read mode : Secure
Utilize accurate stream : Yes
Defeat audio cache : Yes
Make use of C2 pointers : No

Read offset correction : 6
Overread into Lead-In and Lead-Out : No
Fill up missing offset samples with silence : Yes
Delete leading and trailing silent blocks : No
Null samples used in CRC calculations : Yes
Used interface : Native Win32 interface for Win NT & 2000
Gap handling : Appended to previous track

Used output format : User Defined Encoder
Selected bitrate : 1024 kBit/s
Quality : High
Add ID3 tag : Yes
Command line compressor : C:\Program Files\Exact Audio Copy\flac.exe
Additional command line options : -8 -V -T "artist=%a" -T "title=%t" -T "album=%g" -T "date=%y" -T "tracknumber=%n" -T "genre=%m" %s


TOC of the extracted CD

Track | Start | Length | Start sector | End sector
---------------------------------------------------------
1 | 0:00.00 | 2:55.38 | 0 | 13162
2 | 2:55.38 | 2:49.15 | 13163 | 25852
3 | 5:44.53 | 3:23.70 | 25853 | 41147
4 | 9:08.48 | 3:02.70 | 41148 | 54867
5 | 12:11.43 | 3:22.20 | 54868 | 70037
6 | 15:33.63 | 3:00.37 | 70038 | 83574
7 | 18:34.25 | 3:16.65 | 83575 | 98339
8 | 21:51.15 | 3:12.18 | 98340 | 112757
9 | 25:03.33 | 3:08.25 | 112758 | 126882
10 | 28:11.58 | 3:10.12 | 126883 | 141144
11 | 31:21.70 | 2:57.65 | 141145 | 154484
12 | 34:19.60 | 3:26.33 | 154485 | 169967
13 | 37:46.18 | 2:57.47 | 169968 | 183289
14 | 40:43.65 | 2:51.45 | 183290 | 196159
15 | 43:35.35 | 2:50.10 | 196160 | 208919
16 | 46:25.45 | 2:44.25 | 208920 | 221244
17 | 49:09.70 | 2:58.08 | 221245 | 234602
18 | 52:08.03 | 3:11.22 | 234603 | 248949
19 | 55:19.25 | 2:59.65 | 248950 | 262439
20 | 58:19.15 | 3:20.03 | 262440 | 277442


Track 1

Filename G:\EAC Rips\Bessie Smith - 1993 - The Complete Recordings Vol. 4 (Disc 1)\01 - Standin' In The Rain Blues.wav

Pre-gap length 0:00:02.00

Peak level 86.7 %
Track quality 100.0 %
Test CRC 37CC68ED
Copy CRC 37CC68ED
Accurately ripped (confidence 3) [8EBD9A0C]
Copy OK

Track 2

Filename G:\EAC Rips\Bessie Smith - 1993 - The Complete Recordings Vol. 4 (Disc 1)\02 - It Won't Be You.wav

Pre-gap length 0:00:02.40

Peak level 94.8 %
Track quality 100.0 %
Test CRC 865C0688
Copy CRC 865C0688
Accurately ripped (confidence 3) [01632759]
Copy OK

Track 3

Filename G:\EAC Rips\Bessie Smith - 1993 - The Complete Recordings Vol. 4 (Disc 1)\03 - Spider Man Blues.wav

Pre-gap length 0:00:01.93

Peak level 91.4 %
Track quality 100.0 %
Test CRC 94B3EB2A
Copy CRC 94B3EB2A
Accurately ripped (confidence 3) [6BDF25E2]
Copy OK

Track 4

Filename G:\EAC Rips\Bessie Smith - 1993 - The Complete Recordings Vol. 4 (Disc 1)\04 - Empty Bed Blues (Part 1).wav

Pre-gap length 0:00:01.44

Peak level 92.5 %
Track quality 99.9 %
Test CRC 8E77A3F8
Copy CRC 8E77A3F8
Accurately ripped (confidence 3) [1DC71689]
Copy OK

Track 5

Filename G:\EAC Rips\Bessie Smith - 1993 - The Complete Recordings Vol. 4 (Disc 1)\05 - Empty Bed Blues (Part 2).wav

Pre-gap length 0:00:01.90

Peak level 99.8 %
Track quality 100.0 %
Test CRC 7FA25E57
Copy CRC 7FA25E57
Accurately ripped (confidence 3) [D45852DA]
Copy OK

Track 6

Filename G:\EAC Rips\Bessie Smith - 1993 - The Complete Recordings Vol. 4 (Disc 1)\06 - Put It Right Here (Or Keep It Out There).wav

Pre-gap length 0:00:02.36

Peak level 97.2 %
Track quality 100.0 %
Test CRC 2BE8544A
Copy CRC 2BE8544A
Accurately ripped (confidence 3) [2F38F072]
Copy OK

Track 7

Filename G:\EAC Rips\Bessie Smith - 1993 - The Complete Recordings Vol. 4 (Disc 1)\07 - Yes Indeed He Do!.wav

Pre-gap length 0:00:02.02

Peak level 100.0 %
Track quality 100.0 %
Test CRC 4DC3B8BD
Copy CRC 4DC3B8BD
Accurately ripped (confidence 3) [2CF19DE3]
Copy OK

Track 8

Filename G:\EAC Rips\Bessie Smith - 1993 - The Complete Recordings Vol. 4 (Disc 1)\08 - Devil's Gonna Git You.wav

Pre-gap length 0:00:01.92

Peak level 93.9 %
Track quality 99.9 %
Test CRC 1FDA5EE2
Copy CRC 1FDA5EE2
Accurately ripped (confidence 3) [D90B9CF1]
Copy OK

Track 9

Filename G:\EAC Rips\Bessie Smith - 1993 - The Complete Recordings Vol. 4 (Disc 1)\09 - You Ought To Be Ashamed.wav

Pre-gap length 0:00:02.00

Peak level 99.6 %
Track quality 100.0 %
Test CRC DD32765F
Copy CRC DD32765F
Accurately ripped (confidence 3) [53485361]
Copy OK

Track 10

Filename G:\EAC Rips\Bessie Smith - 1993 - The Complete Recordings Vol. 4 (Disc 1)\10 - Washwoman's Blues.wav

Pre-gap length 0:00:02.64

Peak level 93.1 %
Track quality 100.0 %
Test CRC D23BC428
Copy CRC D23BC428
Accurately ripped (confidence 3) [CB099B7A]
Copy OK

Track 11

Filename G:\EAC Rips\Bessie Smith - 1993 - The Complete Recordings Vol. 4 (Disc 1)\11 - Slow And Easy Man.wav

Pre-gap length 0:00:02.09

Peak level 94.7 %
Track quality 100.0 %
Test CRC 4FA47D4F
Copy CRC 4FA47D4F
Accurately ripped (confidence 3) [1F674351]
Copy OK

Track 12

Filename G:\EAC Rips\Bessie Smith - 1993 - The Complete Recordings Vol. 4 (Disc 1)\12 - Poor Man's Blues.wav

Pre-gap length 0:00:01.60

Peak level 100.0 %
Track quality 100.0 %
Test CRC B4A3753F
Copy CRC B4A3753F
Accurately ripped (confidence 3) [D07D209F]
Copy OK

Track 13

Filename G:\EAC Rips\Bessie Smith - 1993 - The Complete Recordings Vol. 4 (Disc 1)\13 - Please Help Me Get Him Out Of My Mind.wav

Pre-gap length 0:00:01.89

Peak level 87.5 %
Track quality 99.9 %
Test CRC EEFB3A37
Copy CRC EEFB3A37
Accurately ripped (confidence 3) [2CF5BA28]
Copy OK

Track 14

Filename G:\EAC Rips\Bessie Smith - 1993 - The Complete Recordings Vol. 4 (Disc 1)\14 - Me And My Gin.wav

Pre-gap length 0:00:02.49

Peak level 78.5 %
Track quality 100.0 %
Test CRC 3F5D4D02
Copy CRC 3F5D4D02
Accurately ripped (confidence 3) [C5E701B4]
Copy OK

Track 15

Filename G:\EAC Rips\Bessie Smith - 1993 - The Complete Recordings Vol. 4 (Disc 1)\15 - I'm Wild About That Thing.wav

Pre-gap length 0:00:01.93

Peak level 92.2 %
Track quality 100.0 %
Test CRC 702F998F
Copy CRC 702F998F
Accurately ripped (confidence 3) [8F536C28]
Copy OK

Track 16

Filename G:\EAC Rips\Bessie Smith - 1993 - The Complete Recordings Vol. 4 (Disc 1)\16 - You've Got To Give Me Some.wav

Pre-gap length 0:00:02.42

Peak level 94.8 %
Track quality 100.0 %
Test CRC 387ABB92
Copy CRC 387ABB92
Accurately ripped (confidence 3) [62EEE695]
Copy OK

Track 17

Filename G:\EAC Rips\Bessie Smith - 1993 - The Complete Recordings Vol. 4 (Disc 1)\17 - Kitchen Man.wav

Pre-gap length 0:00:02.58

Peak level 87.4 %
Track quality 100.0 %
Test CRC 01838024
Copy CRC 01838024
Accurately ripped (confidence 3) [69E48C4F]
Copy OK

Track 18

Filename G:\EAC Rips\Bessie Smith - 1993 - The Complete Recordings Vol. 4 (Disc 1)\18 - I've Got What It Takes (But It Breaks My Heart To Give It Away).wav

Pre-gap length 0:00:02.20

Peak level 89.8 %
Track quality 100.0 %
Test CRC D92B7C21
Copy CRC D92B7C21
Accurately ripped (confidence 3) [FE82CDD1]
Copy OK

Track 19

Filename G:\EAC Rips\Bessie Smith - 1993 - The Complete Recordings Vol. 4 (Disc 1)\19 - Nobody Knows You When You're Down And Out.wav

Pre-gap length 0:00:02.14

Peak level 94.1 %
Track quality 100.0 %
Test CRC 43DD3DC5
Copy CRC 43DD3DC5
Accurately ripped (confidence 3) [6A9CBC2C]
Copy OK

Track 20

Filename G:\EAC Rips\Bessie Smith - 1993 - The Complete Recordings Vol. 4 (Disc 1)\20 - Take It Right Back ('Cause I Don't Want It Here).wav

Pre-gap length 0:00:02.89

Peak level 100.0 %
Track quality 100.0 %
Test CRC ECFDE881
Copy CRC ECFDE881
Accurately ripped (confidence 3) [703A8151]
Copy OK


All tracks accurately ripped

No errors occurred

End of status report

DISC 2
01 - He's Got Me Goin'
02 - It Makes My Love Come Down
03 - Wasted Life Blues
04 - Dirty No-Gooder's Blues
05 - Blue Spirit Blues
06 - Worn Out Papa Blues
07 - You Don't Understand
08 - Don't Cry Baby
09 - Keep It To Yourself
10 - New Orleans Hop Scop Blues
11 - See If I'll Care
12 - Baby Have Pity On Me
13 - On Revival day (A Rhythmic Spiritual)
14 - Moan, You Moaners
15 - Hustlin' Dan
16 - Black Mountain Blues
17 - In The House Blues
18 - Long Old Road
19 - Blue Blues
20 - Shipwreck

EAC LOG
Exact Audio Copy V0.99 prebeta 5 from 4. May 2009

EAC extraction logfile from 31. January 2010, 17:36

Bessie Smith / The Complete Recordings Vol. 4 (Disc 2)

Used drive : Memorex 52MAXX 3252AJ1v2 Adapter: 0 ID: 0

Read mode : Secure
Utilize accurate stream : Yes
Defeat audio cache : Yes
Make use of C2 pointers : No

Read offset correction : 6
Overread into Lead-In and Lead-Out : No
Fill up missing offset samples with silence : Yes
Delete leading and trailing silent blocks : No
Null samples used in CRC calculations : Yes
Used interface : Native Win32 interface for Win NT & 2000
Gap handling : Appended to previous track

Used output format : User Defined Encoder
Selected bitrate : 1024 kBit/s
Quality : High
Add ID3 tag : Yes
Command line compressor : C:\Program Files\Exact Audio Copy\flac.exe
Additional command line options : -8 -V -T "artist=%a" -T "title=%t" -T "album=%g" -T "date=%y" -T "tracknumber=%n" -T "genre=%m" %s


TOC of the extracted CD

Track | Start | Length | Start sector | End sector
---------------------------------------------------------
1 | 0:00.00 | 3:15.00 | 0 | 14624
2 | 3:15.00 | 2:57.55 | 14625 | 27954
3 | 6:12.55 | 3:04.45 | 27955 | 41799
4 | 9:17.25 | 3:00.22 | 41800 | 55321
5 | 12:17.47 | 2:58.28 | 55322 | 68699
6 | 15:16.00 | 2:50.55 | 68700 | 81504
7 | 18:06.55 | 3:06.10 | 81505 | 95464
8 | 21:12.65 | 3:12.02 | 95465 | 109866
9 | 24:24.67 | 3:32.45 | 109867 | 125811
10 | 27:57.37 | 2:59.23 | 125812 | 139259
11 | 30:56.60 | 3:25.65 | 139260 | 154699
12 | 34:22.50 | 3:20.65 | 154700 | 169764
13 | 37:43.40 | 2:56.45 | 169765 | 183009
14 | 40:40.10 | 3:13.30 | 183010 | 197514
15 | 43:53.40 | 3:32.45 | 197515 | 213459
16 | 47:26.10 | 3:10.55 | 213460 | 227764
17 | 50:36.65 | 3:02.25 | 227765 | 241439
18 | 53:39.15 | 3:27.70 | 241440 | 257034
19 | 57:07.10 | 3:14.42 | 257035 | 271626
20 | 60:21.52 | 3:20.10 | 271627 | 286636


Track 1

Filename G:\EAC Rips\Bessie Smith - 1993 - The Complete Recordings Vol. 4 (Disc 2)\01 - He's Got Me Goin'.wav

Pre-gap length 0:00:02.00

Peak level 92.4 %
Track quality 100.0 %
Test CRC 9C804961
Copy CRC 9C804961
Accurately ripped (confidence 3) [AA980FA9]
Copy OK

Track 2

Filename G:\EAC Rips\Bessie Smith - 1993 - The Complete Recordings Vol. 4 (Disc 2)\02 - It Makes My Love Come Down.wav

Pre-gap length 0:00:02.53

Peak level 99.9 %
Track quality 100.0 %
Test CRC D04353F0
Copy CRC D04353F0
Accurately ripped (confidence 3) [78952949]
Copy OK

Track 3

Filename G:\EAC Rips\Bessie Smith - 1993 - The Complete Recordings Vol. 4 (Disc 2)\03 - Wasted Life Blues.wav

Pre-gap length 0:00:01.97

Peak level 87.4 %
Track quality 99.9 %
Test CRC 501BBD75
Copy CRC 501BBD75
Accurately ripped (confidence 3) [1E5B1AF6]
Copy OK

Track 4

Filename G:\EAC Rips\Bessie Smith - 1993 - The Complete Recordings Vol. 4 (Disc 2)\04 - Dirty No-Gooder's Blues.wav

Pre-gap length 0:00:03.00

Peak level 100.0 %
Track quality 99.9 %
Test CRC 5C19E932
Copy CRC 5C19E932
Accurately ripped (confidence 3) [B9031C18]
Copy OK

Track 5

Filename G:\EAC Rips\Bessie Smith - 1993 - The Complete Recordings Vol. 4 (Disc 2)\05 - Blue Spirit Blues.wav

Pre-gap length 0:00:04.93

Peak level 96.5 %
Track quality 100.0 %
Test CRC CD2A57E1
Copy CRC CD2A57E1
Accurately ripped (confidence 3) [E164A4C7]
Copy OK

Track 6

Filename G:\EAC Rips\Bessie Smith - 1993 - The Complete Recordings Vol. 4 (Disc 2)\06 - Worn Out Papa Blues.wav

Pre-gap length 0:00:03.33

Peak level 96.6 %
Track quality 100.0 %
Test CRC D69159AD
Copy CRC D69159AD
Accurately ripped (confidence 3) [13AA694B]
Copy OK

Track 7

Filename G:\EAC Rips\Bessie Smith - 1993 - The Complete Recordings Vol. 4 (Disc 2)\07 - You Don't Understand.wav

Pre-gap length 0:00:02.60

Peak level 95.5 %
Track quality 100.0 %
Test CRC DA0F73EB
Copy CRC DA0F73EB
Accurately ripped (confidence 3) [DA1A6CBA]
Copy OK

Track 8

Filename G:\EAC Rips\Bessie Smith - 1993 - The Complete Recordings Vol. 4 (Disc 2)\08 - Don't Cry Baby.wav

Pre-gap length 0:00:02.30

Peak level 99.9 %
Track quality 100.0 %
Test CRC 7B336485
Copy CRC 7B336485
Accurately ripped (confidence 3) [E5020F41]
Copy OK

Track 9

Filename G:\EAC Rips\Bessie Smith - 1993 - The Complete Recordings Vol. 4 (Disc 2)\09 - Keep It To Yourself.wav

Pre-gap length 0:00:02.40

Peak level 99.9 %
Track quality 100.0 %
Test CRC C1A79825
Copy CRC C1A79825
Accurately ripped (confidence 3) [94E5964A]
Copy OK

Track 10

Filename G:\EAC Rips\Bessie Smith - 1993 - The Complete Recordings Vol. 4 (Disc 2)\10 - New Orleans Hop Scop Blues.wav

Pre-gap length 0:00:02.56

Peak level 95.6 %
Track quality 99.9 %
Test CRC 04827AC3
Copy CRC 04827AC3
Accurately ripped (confidence 3) [587127D5]
Copy OK

Track 11

Filename G:\EAC Rips\Bessie Smith - 1993 - The Complete Recordings Vol. 4 (Disc 2)\11 - See If I'll Care.wav

Pre-gap length 0:00:02.04

Peak level 97.1 %
Track quality 99.9 %
Test CRC DDB071B3
Copy CRC DDB071B3
Accurately ripped (confidence 3) [711BF9B7]
Copy OK

Track 12

Filename G:\EAC Rips\Bessie Smith - 1993 - The Complete Recordings Vol. 4 (Disc 2)\12 - Baby Have Pity On Me.wav

Pre-gap length 0:00:02.77

Peak level 86.1 %
Track quality 100.0 %
Test CRC 210404C7
Copy CRC 210404C7
Accurately ripped (confidence 3) [12EBBE24]
Copy OK

Track 13

Filename G:\EAC Rips\Bessie Smith - 1993 - The Complete Recordings Vol. 4 (Disc 2)\13 - On Revival day (A Rhythmic Spiritual).wav

Pre-gap length 0:00:01.82

Peak level 99.9 %
Track quality 100.0 %
Test CRC C9742E59
Copy CRC C9742E59
Accurately ripped (confidence 3) [B09B3D88]
Copy OK

Track 14

Filename G:\EAC Rips\Bessie Smith - 1993 - The Complete Recordings Vol. 4 (Disc 2)\14 - Moan, You Moaners.wav

Pre-gap length 0:00:01.73

Peak level 96.4 %
Track quality 100.0 %
Test CRC 6C3B6B02
Copy CRC 6C3B6B02
Accurately ripped (confidence 3) [AAE1ED3D]
Copy OK

Track 15

Filename G:\EAC Rips\Bessie Smith - 1993 - The Complete Recordings Vol. 4 (Disc 2)\15 - Hustlin' Dan.wav

Pre-gap length 0:00:01.52

Peak level 80.4 %
Track quality 100.0 %
Test CRC 9ED31B16
Copy CRC 9ED31B16
Accurately ripped (confidence 3) [4FDED463]
Copy OK

Track 16

Filename G:\EAC Rips\Bessie Smith - 1993 - The Complete Recordings Vol. 4 (Disc 2)\16 - Black Mountain Blues.wav

Pre-gap length 0:00:02.57

Peak level 100.0 %
Track quality 100.0 %
Test CRC B786D41C
Copy CRC B786D41C
Accurately ripped (confidence 3) [54A2D3FC]
Copy OK

Track 17

Filename G:\EAC Rips\Bessie Smith - 1993 - The Complete Recordings Vol. 4 (Disc 2)\17 - In The House Blues.wav

Pre-gap length 0:00:03.33

Peak level 87.3 %
Track quality 100.0 %
Test CRC E25E19B9
Copy CRC E25E19B9
Accurately ripped (confidence 3) [39446415]
Copy OK

Track 18

Filename G:\EAC Rips\Bessie Smith - 1993 - The Complete Recordings Vol. 4 (Disc 2)\18 - Long Old Road.wav

Pre-gap length 0:00:02.57

Peak level 69.2 %
Track quality 100.0 %
Test CRC 13EB9402
Copy CRC 13EB9402
Accurately ripped (confidence 3) [CAA6CF3F]
Copy OK

Track 19

Filename G:\EAC Rips\Bessie Smith - 1993 - The Complete Recordings Vol. 4 (Disc 2)\19 - Blue Blues.wav

Pre-gap length 0:00:02.00

Peak level 99.9 %
Track quality 100.0 %
Test CRC EEB3B365
Copy CRC EEB3B365
Accurately ripped (confidence 3) [FC02405F]
Copy OK

Track 20

Filename G:\EAC Rips\Bessie Smith - 1993 - The Complete Recordings Vol. 4 (Disc 2)\20 - Shipwreck.wav

Pre-gap length 0:00:02.53

Peak level 93.7 %
Track quality 100.0 %
Test CRC BE504E60
Copy CRC BE504E60
Accurately ripped (confidence 3) [5D8CF87F]
Copy OK


All tracks accurately ripped

No errors occurred

End of status report


Hotfile Links



Rapid Share Links



Links Are Interchangeable


Password: musicjunky

ADVERTISING » Very Fast Download!



« ADVERTISING




Posted By: 4-F Date: 02 Feb 2010 23:01:28
Looks like I'm among the first to get here again. :)

Thanks!
Posted By: crampoos Date: 02 Feb 2010 23:52:37
Awesome. Thanks a lot.
Posted By: josefinapan Date: 03 Feb 2010 05:02:57
Muchas gracias !! desde Argentina
Posted By: frav10 Date: 03 Feb 2010 08:44:19
Thank's from Israel.
Posted By: musicjunky Date: 03 Feb 2010 13:55:54
Everybody, you're very welcome. I'm finishing up volume 5 now. Should start uploading later today. Glad everyone is enjoying this posting of Bessie.
Posted By: wersollsschonsein Date: 04 Feb 2010 09:49:53
Cheers from Ireland.
I missed this part! Age? Drink? Combination!!
Posted By: martymartymarty Date: 12 Feb 2010 13:49:48
Thank you so much for doing such an incredible job on all of these!!!!!! Dream come true. =)
Posted By: mrask Date: 03 Apr 2010 03:44:37
Thank you so much for this and all your wonderful posts. I wonder if one of the Bessie Smith fans here could help me. I'd like to put together a sampler from among these volumes. I'm new to Bessie Smith and maybe a 30 or so song list would be more digestible :) I will download all, but if someone is up to the task of listing there favorite/most representative tracks I would be appreciative!
Posted By: DnDHornsNHalos Date: 01 May 2010 15:06:36
Thank you very much for this great set. DnDHornsNHalos