Loading...

VA - Die Besten Märsche Aller Zeiten (3 CDs)(2008)

Posted By : pgf000 | Date : 11 Sep 2010 13:50:16 | Comments : 4 |
|



VA - Die Besten Märsche Aller Zeiten (3 CDs)(2008)
(The Best Marches Of All Times)
EAC Rip | FLAC (image) + LOG+CUE | MP3 CBR 320kbps | 02:50:20 | 1.04GB (FLAC) | 238MB (MP3) | no scans

Diese Zusammenstellung enthält die bekanntesten deutschen Märsche in einer hervorragenden Aufnahmequalität und sehr gut gespielt.
German Military marches played by Bundeswehr and other brass orchestras, very high quality recording. A must for the fans of the "genre" :)

CD 1
1. Heeresmusikkorps 6, Hauptmann Hans Orterer - Preussens Gloria (2:12)
2. Heeresmusikkorps 6, Hauptmann Hans Orterer - Alte Kameraden (2:54)
3. Heeresmusikkorps 6, Hauptmann Hans Orterer - Fehrbelliner Reitermarsch (2:22)
4. Heeresmusikkorps 6, Hauptmann Hans Orterer - Gruss an Kiel (2:06)
5. Heeresmusikkorps 6, Hauptmann Hans Orterer - Regimentsgruss (2:25)
6. Heeresmusikkorps 6, Hauptmann Hans Orterer - Bayerischer Defiliermarsch (2:20)
7. Heeresmusikkorps 6, Hauptmann Hans Orterer - Der Konigsgratzer (2:31)
8. Heeresmusikkorps 6, Hauptmann Hans Orterer - Kreuzritter Fanfare (2:30)
9. Heeresmusikkorps 6, Hauptmann Hans Orterer - Radetzky Marsch (2:18)
10. Heeresmusikkorps 6, Hauptmann Hans Orterer - Parademarsch der 18er Husaren (2:03)
11. Heeresmusikkorps 6, Hauptmann Hans Orterer - Mussinan-Marsch (2:55)
12. Heeresmusikkorps 6, Hauptmann Hans Orterer - Marsch der finnlandischen Reiterei (2:30)
13. Heeresmusikkorps 6, Hauptmann Hans Orterer - Marsch des Yorck'schen Korps (2:32)
14. Heeresmusikkorps 6, Hauptmann Hans Orterer - Fridericus Rex Grenadiermarsch (2:42)
15. Heeresmusikkorps 6, Hauptmann Hans Orterer - Marsch aus Petersburg (2:37)
16. Heeresmusikkorps 6, Hauptmann Hans Orterer - Alexandermarsch (2:25)
17. Heeresmusikkorps 6, Hauptmann Hans Orterer - Helenenmarsch (2:07)
18. Heeresmusikkorps 6, Oberstleutnant Wilhelm Stephan - In Treue fest (3:32)
19. Trompeter-Korps Hans Freese, Hans Freese - Marsch des Dragoner Regiments Nr.14 (2:51)
20. Grosses Blasorchester, Hans Freese - Leichte Kavallerie (2:39)
21. Blaskapelle Siegharts, Fritz Katter - Badenweiler Marsch (3:15)
22. Paul Adamek mit seinen Birkenwalder Musikanten - Von der Tann Marsch (2:30)


EAC Log for CD 1
Exact Audio Copy V0.99 prebeta 5 from 4. May 2009

EAC extraction logfile from 9. September 2010, 22:28

Various / Die besten Märsche aller Zeiten CD1

Used drive : SlimtypeDVD A DS8A4S Adapter: 1 ID: 0

Read mode : Secure
Utilize accurate stream : Yes
Defeat audio cache : No
Make use of C2 pointers : No

Read offset correction : 6
Overread into Lead-In and Lead-Out : No
Fill up missing offset samples with silence : Yes
Delete leading and trailing silent blocks : No
Null samples used in CRC calculations : No
Used interface : Native Win32 interface for Win NT & 2000

Used output format : User Defined Encoder
Selected bitrate : 768 kBit/s
Quality : High
Add ID3 tag : No
Command line compressor : C:\Program Files (x86)\Exact Audio Copy\FLAC\FLAC.EXE
Additional command line options : -6 -V -T "ARTIST=%a" -T "TITLE=%t" -T "ALBUM=%g" -T "DATE=%y" -T "TRACKNUMBER=%n" -T "GENRE=%m" -T "COMMENT=%e" %s -o %d


TOC of the extracted CD

Track | Start | Length | Start sector | End sector
---------------------------------------------------------
1 | 0:00.00 | 2:12.33 | 0 | 9932
2 | 2:12.33 | 2:54.11 | 9933 | 22993
3 | 5:06.44 | 2:22.12 | 22994 | 33655
4 | 7:28.56 | 2:06.64 | 33656 | 43169
5 | 9:35.45 | 2:25.28 | 43170 | 54072
6 | 12:00.73 | 2:20.54 | 54073 | 64626
7 | 14:21.52 | 2:31.32 | 64627 | 75983
8 | 16:53.09 | 2:30.43 | 75984 | 87276
9 | 19:23.52 | 2:18.65 | 87277 | 97691
10 | 21:42.42 | 2:03.10 | 97692 | 106926
11 | 23:45.52 | 2:55.60 | 106927 | 120111
12 | 26:41.37 | 2:30.03 | 120112 | 131364
13 | 29:11.40 | 2:32.43 | 131365 | 142807
14 | 31:44.08 | 2:42.56 | 142808 | 155013
15 | 34:26.64 | 2:37.02 | 155014 | 166790
16 | 37:03.66 | 2:25.18 | 166791 | 177683
17 | 39:29.09 | 2:07.73 | 177684 | 187281
18 | 41:37.07 | 3:32.38 | 187282 | 203219
19 | 45:09.45 | 2:51.07 | 203220 | 216051
20 | 48:00.52 | 2:39.49 | 216052 | 228025
21 | 50:40.26 | 3:15.17 | 228026 | 242667
22 | 53:55.43 | 2:30.23 | 242668 | 253940


Range status and errors

Selected range

Filename C:\Users\Public\Music\Various - Die besten Märsche aller Zeiten CD1.wav

Peak level 98.0 %
Range quality 100.0 %
Copy CRC 48616F29
Copy OK

No errors occurred


AccurateRip summary

Track 1 not present in database
Track 2 not present in database
Track 3 not present in database
Track 4 not present in database
Track 5 not present in database
Track 6 not present in database
Track 7 not present in database
Track 8 not present in database
Track 9 not present in database
Track 10 not present in database
Track 11 not present in database
Track 12 not present in database
Track 13 not present in database
Track 14 not present in database
Track 15 not present in database
Track 16 not present in database
Track 17 not present in database
Track 18 not present in database
Track 19 not present in database
Track 20 not present in database
Track 21 not present in database
Track 22 not present in database

None of the tracks are present in the AccurateRip database

End of status report


CD2
1. Stabsmusikkorps der Bundeswehr, Oberstleutnant Wilhelm Stephan - Prasentiermarsch (1:42)
2. Stabsmusikkorps der Bundeswehr, Oberstleutnant Wilhelm Stephan - Pepita Marsch (2:41)
3. Stabsmusikkorps der Bundeswehr, Oberstleutnant Wilhelm Stephan - Die schwarzen Jager (3:11)
4. Stabsmusikkorps der Bundeswehr, Oberstleutnant Wilhelm Stephan - Sedan Marsch (2:45)
5. Stabsmusikkorps der Bundeswehr, Oberstleutnant Wilhelm Stephan - Marsch im Trabe IIIB 42 (2:14)
6. Stabsmusikkorps der Bundeswehr, Oberstleutnant Wilhelm Stephan - Hessische Fahnenmarsch (2:10)
7. Stabsmusikkorps der Bundeswehr, Oberstleutnant Wilhelm Stephan - Herzog von Braunschweig (4:18)
8. Stabsmusikkorps der Bundeswehr, Oberstleutnant Wilhelm Stephan - Prasentiermarsch der schwarzen Brigade (2:04)
9. Stabsmusikkorps der Bundeswehr, Oberstleutnant Wilhelm Stephan - Des grossen Kurfursten Reitermarsch H III 72 (3:15)
10. Stabsmusikkorps der Bundeswehr, Oberstleutnant Wilhelm Stephan - Jagdgeschwader Richthofen (3:03)
11. Stabsmusikkorps der Bundeswehr, Oberstleutnant Wilhelm Stephan - Der Torgauer Marsch (3:01)
12. Stabsmusikkorps der Bundeswehr, Oberstleutnant Wilhelm Stephan - Parademarsch der langen Kerls (2:25)
13. Stabsmusikkorps der Bundeswehr, Oberstleutnant Wilhelm Stephan - Erzherzog Albrecht Marsch (2:44)
14. Stabsmusikkorps der Bundeswehr, Oberstleutnant Wilhelm Stephan - Kurassiermarsch grosser Kurfurst III 142 (3:21)
15. Stabsmusikkorps der Bundeswehr, Oberstleutnant Wilhelm Stephan - Der Coburger (3:06)
16. Stabsmusikkorps der Bundeswehr, Oberstleutnant Wilhelm Stephan - Fanfare und Marsch der Pappenheimer aus dem 30jahrigen Krieg (2:01)
17. Stabsmusikkorps der Bundeswehr, Oberstleutnant Wilhelm Stephan - Der Dessauer (3:50)
18. Stabsmusikkorps der Bundeswehr, Oberstleutnant Wilhelm Stephan - Defiliermarsch (2:33)
19. Stabsmusikkorps der Bundeswehr, Oberstleutnant Wilhelm Stephan - Marsch aus der Zeit Friedrichs des Grossen (2:23)
20. Stabsmusikkorps der Bundeswehr, Oberstleutnant Wilhelm Stephan - Steinmetz Marsch (2:22)
21. Stabsmusikkorps der Bundeswehr, Oberstleutnant Wilhelm Stephan - Frei Weg! (2:07)
22. Hoch- und Deutschmeisterkapelle, Julius Hermann - Egerlander Marsch (2:18)

EAC Log for CD 2

Exact Audio Copy V0.99 prebeta 5 from 4. May 2009

EAC extraction logfile from 9. September 2010, 22:47

Various / Die besten Märsche aller Zeiten CD2

Used drive : SlimtypeDVD A DS8A4S Adapter: 1 ID: 0

Read mode : Secure
Utilize accurate stream : Yes
Defeat audio cache : No
Make use of C2 pointers : No

Read offset correction : 6
Overread into Lead-In and Lead-Out : No
Fill up missing offset samples with silence : Yes
Delete leading and trailing silent blocks : No
Null samples used in CRC calculations : No
Used interface : Native Win32 interface for Win NT & 2000

Used output format : User Defined Encoder
Selected bitrate : 768 kBit/s
Quality : High
Add ID3 tag : No
Command line compressor : C:\Program Files (x86)\Exact Audio Copy\FLAC\FLAC.EXE
Additional command line options : -6 -V -T "ARTIST=%a" -T "TITLE=%t" -T "ALBUM=%g" -T "DATE=%y" -T "TRACKNUMBER=%n" -T "GENRE=%m" -T "COMMENT=%e" %s -o %d


TOC of the extracted CD

Track | Start | Length | Start sector | End sector
---------------------------------------------------------
1 | 0:00.00 | 1:42.28 | 0 | 7677
2 | 1:42.28 | 2:41.70 | 7678 | 19822
3 | 4:24.23 | 3:11.73 | 19823 | 34220
4 | 7:36.21 | 2:45.70 | 34221 | 46665
5 | 10:22.16 | 2:14.54 | 46666 | 56769
6 | 12:36.70 | 2:10.61 | 56770 | 66580
7 | 14:47.56 | 4:18.52 | 66581 | 85982
8 | 19:06.33 | 2:04.63 | 85983 | 95345
9 | 21:11.21 | 3:15.24 | 95346 | 109994
10 | 24:26.45 | 3:03.66 | 109995 | 123785
11 | 27:30.36 | 3:01.07 | 123786 | 137367
12 | 30:31.43 | 2:25.33 | 137368 | 148275
13 | 32:57.01 | 2:44.57 | 148276 | 160632
14 | 35:41.58 | 3:21.55 | 160633 | 175762
15 | 39:03.38 | 3:06.59 | 175763 | 189771
16 | 42:10.22 | 2:01.24 | 189772 | 198870
17 | 44:11.46 | 3:50.40 | 198871 | 216160
18 | 48:02.11 | 2:33.71 | 216161 | 227706
19 | 50:36.07 | 2:23.30 | 227707 | 238461
20 | 52:59.37 | 2:22.59 | 238462 | 249170
21 | 55:22.21 | 2:07.35 | 249171 | 258730
22 | 57:29.56 | 2:18.40 | 258731 | 269120


Range status and errors

Selected range

Filename C:\Users\Public\Music\Various - Die besten Märsche aller Zeiten CD2.wav

Peak level 98.8 %
Range quality 99.9 %
Copy CRC 78BC790B
Copy OK

No errors occurred


AccurateRip summary

Track 1 not present in database
Track 2 not present in database
Track 3 not present in database
Track 4 not present in database
Track 5 not present in database
Track 6 not present in database
Track 7 not present in database
Track 8 not present in database
Track 9 not present in database
Track 10 not present in database
Track 11 not present in database
Track 12 not present in database
Track 13 not present in database
Track 14 not present in database
Track 15 not present in database
Track 16 not present in database
Track 17 not present in database
Track 18 not present in database
Track 19 not present in database
Track 20 not present in database
Track 21 not present in database
Track 22 not present in database

None of the tracks are present in the AccurateRip database

End of status report


CD3
1. Musikkorps der 1. Panzer-Grenadier-Division, Stabsmusikkorps der Bundeswehr, Oberleutnant Wilhelm Stephan - Der grosse Zapfenstreich (10:16)
2. Stabsmusikkorps der Bundeswehr, Oberstleutnant Wilhelm Stephan - Marsch nach Motiven der Oper "Die Weisse Dame" (2:46)
3. Stabsmusikkorps der Bundeswehr, Oberstleutnant Wilhelm Stephan - Revue-Marsch (2:56)
4. Stabsmusikkorps der Bundeswehr, Oberstleutnant Wilhelm Stephan - Marsch nach Motiven der Oper "Moses" (2:15)
5. Stabsmusikkorps der Bundeswehr, Oberstleutnant Wilhelm Stephan - Marsch nach Motiven der Oper "Der Brauer von Preston" (2:18)
6. Trompeter-Korps Hans Freese, Hans Freese - Marsch aus "Die schone Galathee" (2:03)
7. Trompeter-Korps Hans Freese, Hans Freese - Marsch aus der Oper "Giselle" (2:31)
8. Stabsmusikkorps der Bundeswehr, Oberstleutnant Wilhelm Stephan - Marsch nach Motiven der Oper "Indra" (2:44)
9. Stabsmusikkorps der Bundeswehr, Oberstleutnant Wilhelm Stephan - Marsch nach Motiven der Oper "Die Hugenotten" (2:27)
10. Stabsmusikkorps der Bundeswehr, Oberstleutnant Wilhelm Stephan - Der Jager aus Kurpfalz (2:25)
11. Stabsmusikkorps der Bundeswehr, Oberstleutnant Wilhelm Stephan - Weidmannsheil (2:56)
12. Stabsmusikkorps der Bundeswehr, Oberstleutnant Wilhelm Stephan - Wir prasentieren (3:02)
13. Stabsmusikkorps der Bundeswehr, Oberstleutnant Wilhelm Stephan - Gosse Zeit, neue Zeit (2:31)
14. Stabsmusikkorps der Bundeswehr, Oberstleutnant Wilhelm Stephan - Kaiser Friedrich Marsch (2:47)
15. Stabsmusikkorps der Bundeswehr, Oberstleutnant Wilhelm Stephan - Konig Karl Marsch (2:38)
16. Stabsmusikkorps der Bundeswehr, Oberstleutnant Wilhelm Stephan - Schutzen Defiliermarsch (2:10)
17. Stabsmusikkorps der Bundeswehr, Oberstleutnant Wilhelm Stephan - Kriegers Lust (2:39)
18. Heeresmusikkorps 6, Oberstleutnant Wilhelm Stephan - Laridah Marsch (3:06)


EAC Log for CD 3
Exact Audio Copy V0.99 prebeta 5 from 4. May 2009

EAC extraction logfile from 9. September 2010, 23:14

Various / Die besten Märsche aller Zeiten CD3

Used drive : SlimtypeDVD A DS8A4S Adapter: 1 ID: 0

Read mode : Secure
Utilize accurate stream : Yes
Defeat audio cache : No
Make use of C2 pointers : No

Read offset correction : 6
Overread into Lead-In and Lead-Out : No
Fill up missing offset samples with silence : Yes
Delete leading and trailing silent blocks : No
Null samples used in CRC calculations : No
Used interface : Native Win32 interface for Win NT & 2000

Used output format : User Defined Encoder
Selected bitrate : 768 kBit/s
Quality : High
Add ID3 tag : No
Command line compressor : C:\Program Files (x86)\Exact Audio Copy\FLAC\FLAC.EXE
Additional command line options : -6 -V -T "ARTIST=%a" -T "TITLE=%t" -T "ALBUM=%g" -T "DATE=%y" -T "TRACKNUMBER=%n" -T "GENRE=%m" -T "COMMENT=%e" %s -o %d


TOC of the extracted CD

Track | Start | Length | Start sector | End sector
---------------------------------------------------------
1 | 0:00.00 | 10:16.59 | 0 | 46258
2 | 10:16.59 | 2:46.44 | 46259 | 58752
3 | 13:03.28 | 2:56.37 | 58753 | 71989
4 | 15:59.65 | 2:15.53 | 71990 | 82167
5 | 18:15.43 | 2:18.63 | 82168 | 92580
6 | 20:34.31 | 2:03.67 | 92581 | 101872
7 | 22:38.23 | 2:31.14 | 101873 | 113211
8 | 25:09.37 | 2:44.29 | 113212 | 125540
9 | 27:53.66 | 2:27.74 | 125541 | 136639
10 | 30:21.65 | 2:25.29 | 136640 | 147543
11 | 32:47.19 | 2:56.57 | 147544 | 160800
12 | 35:44.01 | 3:02.54 | 160801 | 174504
13 | 38:46.55 | 2:31.01 | 174505 | 185830
14 | 41:17.56 | 2:47.41 | 185831 | 198396
15 | 44:05.22 | 2:38.16 | 198397 | 210262
16 | 46:43.38 | 2:10.14 | 210263 | 220026
17 | 48:53.52 | 2:39.18 | 220027 | 231969
18 | 51:32.70 | 3:06.49 | 231970 | 245968


Range status and errors

Selected range

Filename C:\Users\Public\Music\Various - Die besten Märsche aller Zeiten CD3.wav

Peak level 98.8 %
Range quality 100.0 %
Copy CRC 2746091A
Copy OK

No errors occurred


AccurateRip summary

Track 1 not present in database
Track 2 not present in database
Track 3 not present in database
Track 4 not present in database
Track 5 not present in database
Track 6 not present in database
Track 7 not present in database
Track 8 not present in database
Track 9 not present in database
Track 10 not present in database
Track 11 not present in database
Track 12 not present in database
Track 13 not present in database
Track 14 not present in database
Track 15 not present in database
Track 16 not present in database
Track 17 not present in database
Track 18 not present in database

None of the tracks are present in the AccurateRip database

End of status report









ADVERTISING » Very Fast Download!



« ADVERTISING




Posted By: PaxEuropea Date: 11 Sep 2010 18:14:54
Thanks for this nice contribution; what a hassle having to catch this without RS!
Posted By: Skipper123 Date: 12 Sep 2010 00:13:48
I agree to both sentiments. But thanks for sharing anyway.
Posted By: a5arend Date: 12 Sep 2010 13:17:35
Thanks for this nice contribution; what a hassle having to catch this without RS
Posted By: spls Date: 08 Oct 2010 09:40:07
thank you for sharing