Loading...

Harry Manx - Om Suite Ohm (2013)

Posted By : popsakov | Date : 26 Mar 2013 21:29:00 | Comments : 3 |
|



Harry Manx - Om Suite Ohm (2013)
EAC Rip | FLAC (Img) + Cue + Log ~ 336 Mb | MP3 CBR320 ~ 194 Mb
Covers & Booklet Included (JPG, 600 dpi) | RAR 5% Recovery
Blues, Rock, Folk | Label: Dog My Cat Records | DMCR00874

'Om Suite Ohm' is the first CD from Harry to feature his 'Bollywood style' electric slide techniques. Harry is joined by a fantastic group of musicians playing on Indian, African and western instruments.
Produced by Harry Manx, Hans Christian (Daniel Lanois, Robbie Robertson) and Wynn Gogo,l recording began in Wisconsin in 2011. From there Harry went to Victoria, Australia to record then back to Vancouver Island Canada to finish the record. Guest musicians include Australian Didjeridoo player Ganga Giri (Peter Gabriel); African inspired musician Yeshe on co-writes, N'goni and vocals and Hans Christian on co-writes, bass, strings, percussion, nickelharp, sarangim cello and sitara. Harry sings and plays electric and acoustic slide, national steel, Mohan Veena, banjo and guitar. There are two covers on the record, the traditional "Reuben's Train" and the John Coltrane penned "Love Supreme" with additional lyrics by Harry. 'Om Suite Ohm' is Harry's 9th solo record.


Track List:

01. Further Shore [0:04:26.04]
02. Way Out Back [0:04:57.45]
03. A Love Supreme [0:04:49.50]
04. The Blues Dharma [0:03:22.30]
05. All Fall Down [0:04:06.27]
06. Saya [0:03:10.13]
07. The Moon Rose Up [0:04:24.02]
08. Carry My Tears [0:02:50.70]
09. Reuben's Train [0:04:01.65]
10. Stay Tuned [0:01:26.17]

EAC Log
Exact Audio Copy V0.99 prebeta 4 from 23. January 2008

Отчёт EAC об извлечении, выполненном 8. марта 2013, 23:39

Harry Manx / Om Suite Ohm

Дисковод: PIONEER DVD-RW DVR-118L Adapter: 0 ID: 0

Режим чтения : Достоверность
Использование точного потока : Да
Отключение кэша аудио : Да
Использование указателей C2 : Нет

Коррекция смещения при чтении : 6
Способность читать области Lead-in и Lead-out : Нет
Заполнение пропущенных сэмплов тишиной : Да
Удаление блоков с тишиной в начале и конце : Нет
При вычислениях CRC использовались нулевые сэмплы : Да
Интерфейс : Встроенный Win32-интерфейс для Win NT/2000

Выходной формат : Пользовательский кодировщик
Выбранный битрейт : 128 kBit/s
Качество : Высокий
Добавление ID3-тэга : Нет
Утилита сжатия : C:\Program Files\Exact Audio Copy\FLAC\FLAC.EXE
Дополнительные параметры : -8 -V -T "ARTIST=%a" -T "TITLE=%t" -T "ALBUM=%g" -T "DATE=%y" -T "TRACKNUMBER=%n" -T "GENRE=%m" -T "COMMENT=%e" %s -o %d


TOC извлечённого CD

Трек | Старт | Длительность | Начальный сектор | Конечный сектор
---------------------------------------------------------------------
1 | 0:00.00 | 4:26.04 | 0 | 19953
2 | 4:26.04 | 4:57.45 | 19954 | 42273
3 | 9:23.49 | 4:49.50 | 42274 | 63998
4 | 14:13.24 | 3:22.30 | 63999 | 79178
5 | 17:35.54 | 4:06.27 | 79179 | 97655
6 | 21:42.06 | 3:10.13 | 97656 | 111918
7 | 24:52.19 | 4:24.02 | 111919 | 131720
8 | 29:16.21 | 2:50.70 | 131721 | 144540
9 | 32:07.16 | 4:01.65 | 144541 | 162680
10 | 36:09.06 | 1:26.17 | 162681 | 169147


Характеристики диапазона извлечения и сообщения об ошибках

Выбранный диапазон

Имя файла D:\КОЛЛЕКЦИЯ\Новая папка\Harry Manx - Om Suite Ohm.wav

Пиковый уровень 97.7 %
Качество диапазона 100.0 %
CRC теста AB12E3A8
CRC копии AB12E3A8
Копирование... OK

Ошибок не произошло

Конец отчёта

DR Log
foobar2000 1.2.3 / Dynamic Range Meter 1.1.1
log date: 2013-03-26 13:47:51

--------------------------------------------------------------------------------
Analyzed: Harry Manx / Om Suite Ohm
--------------------------------------------------------------------------------

DR Peak RMS Duration Track
--------------------------------------------------------------------------------
DR9 -0.20 dB -11.75 dB 4:26 01-Further Shore
DR11 -0.20 dB -14.42 dB 4:58 02-Way Out Back
DR11 -0.20 dB -14.16 dB 4:50 03-A Love Supreme
DR9 -0.20 dB -10.97 dB 3:22 04-The Blues Dharma
DR9 -0.20 dB -12.57 dB 4:06 05-All Fall Down
DR11 -0.20 dB -12.83 dB 3:10 06-Saya
DR12 -0.19 dB -14.65 dB 4:24 07-The Moon Rose Up
DR10 -0.20 dB -12.82 dB 2:51 08-Carry My Tears
DR11 -0.20 dB -13.20 dB 4:02 09-Reuben's Train
DR10 -0.20 dB -13.56 dB 1:26 10-Stay Tuned
--------------------------------------------------------------------------------

Number of tracks: 10
Official DR value: DR10

Samplerate: 44100 Hz
Channels: 2
Bits per sample: 16
Bitrate: 809 kbps
Codec: FLAC
================================================================================


All thanks go to ЗУБ2007

Visit my blog!

Download:

Uploaded: FLAC-part 1 | FLAC-part 2 ||| mp3

DFiles: FLAC-part 1 | FLAC-part 2 ||| mp3

pass: www.AvaxHome.ru
ADVERTISING » Very Fast Download!



« ADVERTISING




Posted By: gatomontez Date: 27 Mar 2013 00:16:32
thank you for share this sound :)
Posted By: nrwsps Date: 03 Apr 2013 00:04:57
Thanks a lot.
Posted By: petecare Date: 12 Apr 2013 15:08:38
Thanks popsakov. I'm just said :
"Mark Knopfler get out from this body". It's a joke for sure... His voice is the same. But good Album .
Om