Loading...

Scott Ramminger - Advice From A Father To A Son (2013)

Posted By : popsakov | Date : 12 Apr 2013 18:56:48 | Comments : 1 |
|



Scott Ramminger - Advice From A Father To A Son (2013)
EAC Rip | FLAC (Img) + Cue + Log ~ 402 Mb | MP3 CBR320 ~ 148 Mb
Scans Included (JPG, 600 dpi) | RAR 5% Recovery
Funky Blues, R&B | Label: Arbor Lane Music | 700261370347/ALM-918

Singer, songwriter, sax man Scott Ramminger likes to make listeners think with his clever original tunes. But he also likes to make them tap their feet or do that chair boogie thing. Firmly rooted in the blues, this album of originals was recorded in New Orleans and Ramminger's current home of Washington DC. Ramminger is backed up on the disk by some of the top players in both towns. Adding to the excitement, Nashville's McCrary Sisters, who have backed up everyone from Bob Dylan to Dr. John, sing on six of the ten tracks - one a duet between Ramminger and Regina McCrary. Nashville's Etta Britt joins Ramminger on two of the tracks. "Advice From a Father to a Son," was getting critical acclaim and songwriting awards even before its release. "For me, the groove has got to be there," Ramminger notes. "But song also has to have something to say lyrically, go somewhere. Finally, I like to play, and I had some of the best players around on this record, so I was going to make sure there was room for everyone to stretch out a bit."


Track List:

01. I Really Love Your Smile [04:22]
02. Funkier Than Him [06:20]
03. This Town's Seen the Last of Me [03:55]
04. The Other Man's Shoes [06:38]
05. Advice From a Father To a Son [04:22]
06. I've Got a Funny Feeling [04:32]
07. Magic In the Music [05:47]
08. More Than One Flavor [04:11]
09. Must Be True [03:45]
10. Sometimes You Race the Devil [04:25]

EAC Log
Exact Audio Copy V0.99 prebeta 5 from 4. May 2009

Отчёт EAC об извлечении, выполненном 23. марта 2013, 16:57

Scott Ramminger / Advice From a Father To a Son

Дисковод: PLEXTOR DVDR PX-880SA Adapter: 1 ID: 0

Режим чтения : Достоверность
Использование точного потока : Да
Отключение кэша аудио : Да
Использование указателей C2 : Нет

Коррекция смещения при чтении : 6
Способность читать области Lead-in и Lead-out : Нет
Заполнение пропущенных сэмплов тишиной : Да
Удаление блоков с тишиной в начале и конце : Нет
При вычислениях CRC использовались нулевые сэмплы : Да
Интерфейс : Установленный внешний ASPI-интерфейс

Выходной формат : Пользовательский кодировщик
Выбранный битрейт : 1024 kBit/s
Качество : Высокий
Добавление ID3-тэга : Нет
Утилита сжатия : C:\Program Files\Exact Audio Copy\FLAC\FLAC.EXE
Дополнительные параметры : -10 -V -T "ARTIST=%a" -T "TITLE=%t" -T "ALBUM=%g" -T "DATE=%y" -T "TRACKNUMBER=%n" -T "GENRE=%m" -T "COMMENT=%e" %s -o %d


TOC извлечённого CD

Трек | Старт | Длительность | Начальный сектор | Конечный сектор
---------------------------------------------------------------------
1 | 0:00.00 | 4:22.18 | 0 | 19667
2 | 4:22.18 | 6:20.54 | 19668 | 48221
3 | 10:42.72 | 3:54.72 | 48222 | 65843
4 | 14:37.69 | 6:37.15 | 65844 | 95633
5 | 21:15.09 | 4:22.56 | 95634 | 115339
6 | 25:37.65 | 4:31.66 | 115340 | 135730
7 | 30:09.56 | 5:46.63 | 135731 | 161743
8 | 35:56.44 | 4:10.31 | 161744 | 180524
9 | 40:07.00 | 3:45.17 | 180525 | 197416
10 | 43:52.17 | 4:25.43 | 197417 | 217334


Характеристики диапазона извлечения и сообщения об ошибках

Выбранный диапазон

Имя файла D:\BitComet\Scott Ramminger - Advice from a Father to a Son(2013)(flac)\Scott Ramminger - Advice From a Father To a Son.wav

Пиковый уровень 98.8 %
Качество диапазона 100.0 %
CRC теста 24A071D8
CRC копии 24A071D8
Копирование... OK

Ошибок не произошло


AccurateRip: сводка

Трек 1 нет в базе данных
Трек 2 нет в базе данных
Трек 3 нет в базе данных
Трек 4 нет в базе данных
Трек 5 нет в базе данных
Трек 6 нет в базе данных
Трек 7 нет в базе данных
Трек 8 нет в базе данных
Трек 9 нет в базе данных
Трек 10 нет в базе данных

Ни одного трека нет в базе AccurateRip

Конец отчёта

DR Log
foobar2000 1.2.3 / Dynamic Range Meter 1.1.1
log date: 2013-04-11 23:38:54

--------------------------------------------------------------------------------
Analyzed: Scott Ramminger / Advice From a Father To a Son
--------------------------------------------------------------------------------

DR Peak RMS Duration Track
--------------------------------------------------------------------------------
DR9 -0.20 dB -10.59 dB 4:22 01-I Really Love Your Smile
DR9 -0.20 dB -11.94 dB 6:21 02-Funkier Than Him
DR8 -0.20 dB -9.17 dB 3:55 03-This Town's Seen the Last of Me
DR9 -0.20 dB -10.96 dB 6:37 04-The Other Man's Shoes
DR8 -0.20 dB -9.55 dB 4:23 05-Advice From a Father To a Son
DR9 -0.20 dB -10.74 dB 4:32 06-I've Got a Funny Feeling
DR9 -0.20 dB -10.87 dB 5:47 07-Magic In the Music
DR9 -0.10 dB -10.00 dB 4:10 08-More Than One Flavor
DR9 -0.10 dB -10.31 dB 3:45 09-Must Be True
DR10 -0.20 dB -11.39 dB 4:26 10-Sometimes You Race the Devil
--------------------------------------------------------------------------------

Number of tracks: 10
Official DR value: DR9

Samplerate: 44100 Hz
Channels: 2
Bits per sample: 16
Bitrate: 935 kbps
Codec: FLAC
================================================================================


All thanks go to ©СЁРФ-Маrаtones aka izia1956

Visit my blog!

Download:

Uploaded: FLAC-part 1 | FLAC-part 2 ||| mp3

DFiles: FLAC-part 1 | FLAC-part 2 ||| mp3

pass: www.AvaxHome.ru
ADVERTISING » Very Fast Download!



« ADVERTISING




Posted By: chriss65 Date: 09 Dec 2013 18:05:25
thanks a lot