Loading...

Bruckner: Symphony No. 7 in E major (ed. Haas) - Berliner Philharmoniker; Herbert von Karajan

Posted By : waldstein | Date : 28 Apr 2010 20:20:13 | Comments : 2 |
|



Anton Bruckner: Symphony No. 7 in E major (1885 ed. Robert Haas) – Berliner Philharmoniker; Herbert von Karajan
Classical | 1 CD | EAC Rip | 311 MB | FLAC+LOG+Cue | Full scans | RS links
Publisher: EMI Classics

‘Glowing' is also an apt word with which to describe this account of the Seventh. Very much sue generis, this is arguably the most purely beautiful account of the symphony there has ever been on record.
Richard Osborne, The Gramophone, 1997
***
Karajan's 1971 EMI recording of Bruckner's Seventh Symphony, originally issued as a three-LP set with the Fourth Symphony, is so lucidly shaped and so luminously played that one listens to it as if under some rare form of musical hypnosis. It was one of Karajan's later Berlin recordings in the Jesus-Christus Kirche and it has a proper Brucknerian spaciousness and atmosphere, with considerable depth of field and a pleasing degree of reverberation, yet with plenty of definition where it matters in the swifter parts of the Scherzo and finale. Karajan's 1975 recording (12/86) made as part of the complete DG/Berlin cycle in the Philharmonie, is a tauter performance, more dryly recorded, less lovable than this reading which reflects something of the orchestra's work at the time of the music of Debussy, Sibelius, and Wagner's Ring. In this 1971 recording, Bruckner emerges as a master symphonist with what are possibly pantheistic longings.
The Gramophone, June 1989

EAC LOG
Exact Audio Copy V0.99 prebeta 4 from 23. January 2008

EAC extraction logfile from 25. April 2010, 15:59

Berliner Philharmoniker · Herbert von Karajan / Anton Bruckner: Symphony No. 7 in E major (1885. ed. R. Haas)

Used drive : HL-DT-STDVDRAM GSA-4167B Adapter: 3 ID: 0

Read mode : Secure
Utilize accurate stream : Yes
Defeat audio cache : No
Make use of C2 pointers : No

Read offset correction : 667
Overread into Lead-In and Lead-Out : No
Fill up missing offset samples with silence : No
Delete leading and trailing silent blocks : Yes
Null samples used in CRC calculations : No
Used interface : Native Win32 interface for Win NT & 2000
Gap handling : Appended to previous track

Used output format : User Defined Encoder
Selected bitrate : 320 kBit/s
Quality : High
Add ID3 tag : No
Command line compressor : C:\Program Files\Exact Audio Copy\FLAC\FLAC.EXE
Additional command line options : -6 -V -T "ARTIST=%a" -T "TITLE=%t" -T "ALBUM=%g" -T "DATE=%y" -T "TRACKNUMBER=%n" -T "GENRE=%m" -T "COMMENT=%e" %s -o %d


TOC of the extracted CD

Track | Start | Length | Start sector | End sector
---------------------------------------------------------
1 | 0:00.00 | 21:49.00 | 0 | 98174
2 | 21:49.00 | 22:54.47 | 98175 | 201271
3 | 44:43.47 | 10:30.48 | 201272 | 248569
4 | 55:14.20 | 12:50.00 | 248570 | 306319


Track 1

Filename I:\My Documents\My Music\Bruckner\Symphony No. 7 - Karajan (EMI)\01.Symphony No. 7 in E major (1885. ed. R. Haas) - I. Allegro moderato.wav

Pre-gap length 0:00:02.00

Peak level 89.5 %
Track quality 99.9 %
Test CRC 246DAACF
Copy CRC 246DAACF
Copy OK

Track 2

Filename I:\My Documents\My Music\Bruckner\Symphony No. 7 - Karajan (EMI)\02.Symphony No. 7 in E major (1885. ed. R. Haas) - II. Adagio (Sehr feierlich und sehr langsam).wav

Peak level 97.5 %
Track quality 100.0 %
Test CRC 0EA9F1A2
Copy CRC 0EA9F1A2
Copy OK

Track 3

Filename I:\My Documents\My Music\Bruckner\Symphony No. 7 - Karajan (EMI)\03.Symphony No. 7 in E major (1885. ed. R. Haas) - III. Scherzo (Sehr schnell) & Trio (Etwas langsamer).wav

Peak level 98.7 %
Track quality 100.0 %
Test CRC 85A2BFFA
Copy CRC 85A2BFFA
Copy OK

Track 4

Filename I:\My Documents\My Music\Bruckner\Symphony No. 7 - Karajan (EMI)\04.Symphony No. 7 in E major (1885. ed. R. Haas) - IV. Finale (Bewegt, doch nicht zu schnell).wav

Peak level 100.0 %
Track quality 100.0 %
Test CRC DF5C8FCD
Copy CRC DF5C8FCD
Copy OK

No errors occurred

End of status report

TRACK LIST
CD: Berliner Philharmoniker · Herbert von Karajan - Anton Bruckner: Symphony No. 7 in E major (1885. ed. R. Haas)
Anton Bruckner (1824-1896)
Symphony N° 7 in E major (1881-83) (Haas Edition)

Herbert von Karajan, Berlin PO

1. Allegro moderato
2. Adagio (Sehr feierlich und sehr langsam)
3. Scherzo (Sehr schnell) & Trio (Etwaslangsamer)
4. Finale (Bewegt, doch nicht schnell)

Year recording :1971
Year digital remastering : 1996

01. Symphony No. 7 in E major (1885. ed. R. Haas) - I. Allegro moderato [0:21:49.00]
02. Symphony No. 7 in E major (1885. ed. R. Haas) - II. Adagio (Sehr feierlich und sehr langsam) [0:22:54.47]
03. Symphony No. 7 in E major (1885. ed. R. Haas) - III. Scherzo (Sehr schnell) & Trio (Etwas langsamer) [0:10:30.48]
04. Symphony No. 7 in E major (1885. ed. R. Haas) - IV. Finale (Bewegt, doch nicht zu schnell) [0:12:50.00]

Rapidshare links:
PART1 | PART2 | PART3 | PART4

password: anton
No mirrors, please

ADVERTISING » Very Fast Download!



« ADVERTISING




Posted By: Wooden Ear Date: 29 Apr 2010 07:46:29
Thank you very much for this master piece!!!
Posted By: ipromesisposi Date: 29 Apr 2010 09:31:48
Excellent!
Another patient for my bedlam-blog.
Very kind of you.