Loading...

Glazunov - Two Preludes, To the Memory of N Gogol, Carnival, Fortune-Telling & Dance, Finnish Sketches - E.Svetlanov (1990)

Posted By : amadi | Date : 27 Feb 2011 20:43:30 | Comments : 4 |
|



Glazunov - Two Preludes, To the Memory of N Gogol, Carnival, Fortune-Telling & Dance, Finnish Sketches - Evgeni Svetlanov (1990)
Melodiya | USSR | SUCD 10-00163 | 1990 | 1 CD | EAC Rip | FLAC (img + cue), LOG | 7 Tracks | TT 56:16 | Covers (jpg 300 dpi) | RAR 233 MB + 3% Recovery | FSonic/FServe
Classical / Sympohonic / Orchestral

All the symphonic works by A. Glazunow (and many of them for the first time) have reached the audience due to the unique series of recordings "Anthology of Russian Symphony Music" made bv the USSR Symphony Orchestra under Evgeni Svetlanov. Each interpretation of the conductor is the result of the profound understanding of Ihe author's concept, inspired by a powerful creative individuality and high performing mastery of the conductor.
The programme presents Glazunov's works created during the two decades. The earliest among them is the orchestral overture "Carnival" (1893).
Three memorial orchestral pieces created in the first decade of the 20th century β€” Preludes, Op. 85β€”are sort of musical epitaphs; they are connected with the dramatic and oppressive for Glazunov events β€” deceases of the two persons which meant much to the composer β€” V. Stasov and N. Rimskv-Korsakov.
Symphonic prologue "To the Memory of N. Gogol" was written in 1909 to the inauguration of the monument to Gogol in Moscow. The work was performed at a concert dedicated to the 100th anniversary7 of the great writer.
Practically unknown ballet scene "Fortune-Telling and Dance" dated by 1904 and dedicated to Maria Petipa (a daughter of a famous Peter- bourg choreographer Marius Petipa) prima-ballet dancer of the Mariinsky Theatre.
Finnish Sketches (1912) along with the "Karelian Legend" and "Finnish Fantasia" proved the interest of A. Glazunov to the folk tales and musical folklore of the Northern land.

Tracklist:
1. Two Preludes Op.85 - To the Memory of V. Stasov
2. Two Preludes Op.85 - To the Memory of N. Rimsky-Korsakov
4. To the Memory of N Gogol, symphonic prologue Op.87
3. Carnival Op.45
5. Fortune-Telling & Dance, ballet scene Op.81
6. Finnish Sketches Op.89 - No.1 From "Kalevala"
7. Finnish Sketches Op.89 - No.2 Procession

Performers:
The USSR Symphony Orchestra
Conductor Evgeni Svetlanov

EAC log
Exact Audio Copy V1.0 beta 1 from 15. November 2010

EAC extraction logfile from 25. February 2011, 17:53

Glazunov / Two Preludes, To the Memory of N Gogol, Carnival, Fortune-Telling and Dance,

Used drive : SONY CD-ROM CDU5221 Adapter: 3 ID: 0

Read mode : Secure
Utilize accurate stream : Yes
Defeat audio cache : No
Make use of C2 pointers : Yes

Combined read/write offset correction : 0
Overread into Lead-In and Lead-Out : No
Fill up missing offset samples with silence : Yes
Delete leading and trailing silent blocks : No
Null samples used in CRC calculations : No
Used interface : Installed external ASPI interface

Used output format : User Defined Encoder
Selected bitrate : 768 kBit/s
Quality : High
Add ID3 tag : No
Command line compressor : C:\Program Files\Exact Audio Copy\FLAC\FLAC.EXE
Additional command line options : -6 -V -T "ARTIST=%a" -T "TITLE=%t" -T "ALBUM=%g" -T "DATE=%y" -T "TRACKNUMBER=%n" -T "GENRE=%m" -T "COMMENT=%e" %j--picture="%i"%j %s -o %d


TOC of the extracted CD

Track | Start | Length | Start sector | End sector
---------------------------------------------------------
1 | 0:00.00 | 6:01.73 | 0 | 27147
2 | 6:01.73 | 11:16.20 | 27148 | 77867
3 | 17:18.18 | 10:29.32 | 77868 | 125074
4 | 27:47.50 | 9:33.35 | 125075 | 168084
5 | 37:21.10 | 9:36.08 | 168085 | 211292
6 | 46:57.18 | 5:21.07 | 211293 | 235374
7 | 52:18.25 | 4:34.55 | 235375 | 255979


Range status and errors

Selected range

Filename D:\Glazunov - Two Preludes, To the Memory of N Gogol, Carnival, Fortune-Telling & Dance, Finnish Sketches - E.Svetlanov (1990)\Glazunov - Two Preludes, To the Memory of N Gogol, Carnival, Fortune-Telling and Dance,.wav

Peak level 89.6 %
Extraction speed 0.8 X
Range quality 99.9 %
Copy CRC 8328862F
Copy OK

No errors occurred

End of status report


FServe (Part 1)
FServe (Part 2)

FSonic (Part 1)
FSonic (Part 2)

p.s. the files are interchangeable...

No Mirrors Below!

Glazunov - Symphony No.2, Song of Fate, dramatic overture Op.84 - Evgeni Svetlanov (1990)
Glazunov - Symphony No.3 - Evgeni Svetlanov (1990)
Glazunov - Symphonies Nos. 4, 5 - Evgeni Svetlanov (1990)
Glazunov - Symphony No.6, Volga Boatmen's Song, Serenade No.1, Characteristic Dance - Evgeni Svetlanov (1990)
Glazunov - Symphony No.7, Karellian Legend - Evgeni Svetlanov (1990)
Glazunov - Symphony No.8, Idyll, Reverie orientale, Serenade No.2 - Evgeni Svetlanov (1990)

ADVERTISING » Very Fast Download!



« ADVERTISING




Posted By: futor Date: 27 Feb 2011 21:29:05
thank you .
Posted By: musician3 Date: 28 Feb 2011 01:32:38
Great..........Thank You
Posted By: afghan Date: 13 Mar 2011 14:16:19
Thank You!!!
Posted By: refo Date: 16 Apr 2011 20:17:00
Thank you.