Loading...

Mozart; Verdi - Requiem (Barenboim, Barbirolli)

Posted By : ArlegZ | Date : 05 Feb 2011 08:50:09 | Comments : 2 |
|



Mozart; Verdi - Requiem (Barenboim, Barbirolli)
EAC | FLAC+CUE+LOG | SCANS | 2CD | 562.9 MB
Classical | Released: 2002 | Label: EMI Classics

The Verdi Requiem, though is even better, and receives even better performances. When this was made in 1969-70, all four principals were at the top of their form. Montserrat Caballé was at her best in the 60's through around 1972, and here she shows herself to be THE Verdi soprano of the last forty years. Her large, clear, glorious voice, seamless legato and magical pianissimi are heard to great advantage here. Her "Libera me" is a masterpiece of sound and vocal acting. Fiorenza Cossotto was similarly in her prime here, and she is stunning - powerful in the "Liber scriptus" yet capable of soft, tender singing and her "Lux aeterna" haunts the ear. Jon Vickers is an unusual tenor. Most operatic tenors have a dynamic range of loud, louder, loudest, but he has everything from fortissimo to pianissimo. His powerful voice is clearly not Italian, but he makes such a good impression in this role that you don't really care. Ruggero Raimondi's dark, rolling, majestic, magisterial bass is ideal for this role, and his low notes have a resonance that the ear drinks in greedily. Barbirolli takes slow tempi, but it never sounds sluggish, and the "Ingemisco," for example, sounds much better slower than taken at the speed of, say, Toscanini. The New Philharmonia Chorus and Orchestra are two of the finest ensembles in the world - particularly the rich, magisterial sound of the chorus is fantastic. These performances, packaged attractively, are the only ones you will ever need of the Mozart and Verdi Requiems.

TRACKLIST & CAST:

CD1:
Mozart - Requiem In D Minor, K 626: (1-12)
Sheila Armstrong - soprano
Janet Baker - mezzo-soprano
Nicolai Gedda – tenor
Dietrich Fischer-Dieskau – baryton
John Alldis Choir & English Chamber Orchestra
Conductor - Daniel Barenboim

CD1.2:
Verdi – Messa da Requiem: (13-16). (1-12)
Montserrat Caballe - soprano
Fiorenza Cossotto - mezzo-soprano
Jon Vickers – tenor
Ruggero Raimondi - bass
New Philharmonia Chorus & Orchestra
Conductor – Sir John Barbirolli

LOG CD1 :
Exact Audio Copy V0.99 prebeta 5 from 4. May 2009

EAC extraction logfile from 1. March 2011, 23:48

Daniel Barenboim; Sir John Barbirolli / Mozart; Verdi - Requiem - CD1

UUsed drive : PIONEER DVD-RW DVR-218L Adapter: 1 ID: 0

Read mode : Secure
Utilize accurate stream : Yes
Defeat audio cache : Yes
Make use of C2 pointers : No

Read offset correction : 6
Overread into Lead-In and Lead-Out : No
Fill up missing offset samples with silence : Yes
Delete leading and trailing silent blocks : No
Null samples used in CRC calculations : Yes
Used interface : Native Win32 interface for Win NT & 2000

Used output format : User Defined Encoder
Selected bitrate : 128 kBit/s
Quality : High
Add ID3 tag : No
Command line compressor : C:\Program Files\Exact Audio Copy\FLAC\FLAC.EXE
Additional command line options : -5 -V %s


TOC of the extracted CD

Track | Start | Length | Start sector | End sector
---------------------------------------------------------
1 | 0:00.00 | 8:13.47 | 0 | 37021
2 | 8:13.47 | 1:46.05 | 37022 | 44976
3 | 9:59.52 | 4:22.03 | 44977 | 64629
4 | 14:21.55 | 2:23.05 | 64630 | 75359
5 | 16:44.60 | 6:11.10 | 75360 | 103194
6 | 22:55.70 | 2:57.02 | 103195 | 116471
7 | 25:52.72 | 3:27.08 | 116472 | 132004
8 | 29:20.05 | 4:02.47 | 132005 | 150201
9 | 33:22.52 | 5:23.53 | 150202 | 174479
10 | 38:46.30 | 1:43.00 | 174480 | 182204
11 | 40:29.30 | 5:51.22 | 182205 | 208551
12 | 46:20.52 | 9:55.08 | 208552 | 253184
13 | 56:15.60 | 9:56.25 | 253185 | 297909
14 | 66:12.10 | 2:37.65 | 297910 | 309749
15 | 68:50.00 | 1:47.30 | 309750 | 317804
16 | 70:37.30 | 1:28.17 | 317805 | 324421


Range status and errors

Selected range

Filename C:\Mozart; Verdi - Requiem - CD1.wav

Peak level 71.0 %
Range quality 100.0 %
Test CRC 2EAF024F
Copy CRC 2EAF024F
Copy OK

No errors occurred


AccurateRip summary

Track 1 not present in database
Track 2 not present in database
Track 3 not present in database
Track 4 not present in database
Track 5 not present in database
Track 6 not present in database
Track 7 not present in database
Track 8 not present in database
Track 9 not present in database
Track 10 not present in database
Track 11 not present in database
Track 12 not present in database
Track 13 not present in database
Track 14 not present in database
Track 15 not present in database
Track 16 not present in database

None of the tracks are present in the AccurateRip database

End of status report

LOG CD2 :
Exact Audio Copy V0.99 prebeta 5 from 4. May 2009

EAC extraction logfile from 2. March 2011, 13:07

Sir John Barbirolli, M.Caballe, F.Cossotto, J.Vickers, R.Raimondi / Verdi - Requiem - CD2

Used drive : PIONEER DVD-RW DVR-218L Adapter: 1 ID: 0

Read mode : Secure
Utilize accurate stream : Yes
Defeat audio cache : Yes
Make use of C2 pointers : No

Read offset correction : 6
Overread into Lead-In and Lead-Out : No
Fill up missing offset samples with silence : Yes
Delete leading and trailing silent blocks : No
Null samples used in CRC calculations : Yes
Used interface : Native Win32 interface for Win NT & 2000

Used output format : User Defined Encoder
Selected bitrate : 128 kBit/s
Quality : High
Add ID3 tag : No
Command line compressor : C:\Program Files\Exact Audio Copy\FLAC\FLAC.EXE
Additional command line options : -5 -V %s


TOC of the extracted CD

Track | Start | Length | Start sector | End sector
---------------------------------------------------------
1 | 0:00.00 | 5:32.23 | 0 | 24922
2 | 5:32.23 | 4:15.02 | 24923 | 44049
3 | 9:47.25 | 4:16.20 | 44050 | 63269
4 | 14:03.45 | 4:40.48 | 63270 | 84317
5 | 18:44.18 | 3:52.62 | 84318 | 101779
6 | 22:37.05 | 5:29.43 | 101780 | 126497
7 | 28:06.48 | 6:41.32 | 126498 | 156604
8 | 34:48.05 | 10:54.68 | 156605 | 205722
9 | 45:42.73 | 3:13.07 | 205723 | 220204
10 | 48:56.05 | 6:02.65 | 220205 | 247419
11 | 54:58.70 | 6:33.23 | 247420 | 276917
12 | 61:32.18 | 14:25.37 | 276918 | 341829


Range status and errors

Selected range

Filename C:\Verdi - Requiem - CD2.wav

Peak level 73.0 %
Range quality 100.0 %
Test CRC 7DB5B12E
Copy CRC 7DB5B12E
Copy OK

No errors occurred


AccurateRip summary

Track 1 not present in database
Track 2 not present in database
Track 3 not present in database
Track 4 not present in database
Track 5 not present in database
Track 6 not present in database
Track 7 not present in database
Track 8 not present in database
Track 9 not present in database
Track 10 not present in database
Track 11 not present in database
Track 12 not present in database

None of the tracks are present in the AccurateRip database

End of status report

Download album:

No mirrors, please

ADVERTISING » Very Fast Download!



« ADVERTISING




Posted By: sky2011 Date: 07 Feb 2011 18:51:50
Thank you very much - Vielen Dank !
Posted By: bigjay Date: 25 Mar 2012 16:35:32
Darn, both are down! :-(