Loading...

G.Verdi - Don Carlo - Francesco Molinari-Pradelli (live 1972)

Posted By : konchatn | Date : 12 Jul 2010 17:22:55 | Comments : 5 |
|


G.Verdi - Don Carlo - Francesco Molinari-Pradelli

G.Verdi - Don Carlo - Metropolitan de New York, 22.04.72
2CD set | APE + CUE + EAC LOG | Cover + Booklet | 625.3Mb | 158:22 | MYTO RECORDS | 2004
F.Corelli, M.Caballe, C.Siepi, S.Milnes, G.Bumbry, conductor: Francesco Molinari-Pradelli

Contents:
G.Verdi (1813 - 1901) - Don Carlo
CD1: 79:10
1. Carlo, il sommo imperatore
2. Io l'ho perduta
3. Il duolo della terra
4. E lui!... desso... L'Infante!
5. Dio, che nell'alma infondere
6. Sotto al folti, immense abeti
7. Nel giardin del bello Saracin ostello
8. La Regina!
9. Che mai si fa nel suol francese
10. Carlo, ch'e sol - il nostro amore
11. Io vengo a domandar
12. Il Re!
13. Non pianger, mia compagna
14. Restate!
15. O, Signor,di Fiandra arrivo
16. Quest'e la pace che voi date al mondo?
17. Oso lo sguardo tuo penetrar il mio soglio
18. Introduzione
19. A mezzanotte ai giardin della Regina
20. Al mio furor sfuggite invano
21. Ed io, che tremava al suo aspetto!
22. Trema per te, falso figliuolo
23. Carlo, se mai su te fogli importanti serbi
24. Spuntato ecco il di d'esultanza
25. Schiusa or sia la porta sacra del tempio

CD2 : 79:10
1. Nel posar sul mio capo la corona
2. Qui Carlo! O ciel!
3. Sire, egli e tempo ch'io viva
4. O ciel! Tu, Rodrigo!
5. Introduzione
6. Ella giammai m'amo
7. Il Grande Inquisitor!
8. Nell'ispano suol mai l'eresia domino
9. No, giammai!
10. Giustizia! o Sire
11. Ben lo sapete - un di promessa
12. Soccorso alla Regina!
13. Ah, sii maledetto - sospetto fatale
14. Pieta! perdon!...
15. O don fatale, o don crudel
16. Son io, mio Carlo
17. Per me giunto e il di supreme
18. Che parli tu di morte?
19. Io morro, ma lieto in core
20. Mio Carlo, a te la spada io rendo
21. Introduzione
22. Tu che le vanita conoscesti del mondo
23. E dessa!
24. Ma lassu ci vedremo in un mondo migliore
25. Si, per sempre!

Performer:
Filippo II: Cesare Siepi
Don Carlo: Franco Corelli
Elisabetta: Montserrat Caballe
Rodrigo: Sherill Milnes
Eboli: Grace Bumbry
Il Grande Inquisitore: John Macurdy
Un Frate: Paul Plishka
Tebaldo: Frederica von Stade
Voce dal Cielo: Lucine Amara
Metropolitan de New York, dir. Molinari-Pradelli (Met 22.04.72)
CD1 EAC LOG

Exact Audio Copy V0.99 prebeta 5 from 4. May 2009

Отчёт EAC об извлечении, выполненном 7. июля 2010, 23:41

Don Carlo (Corelli, Caballe, Bumbry, Siepi) (Met 22.04.72) / Don Carlo

Дисковод: MATSHITADVD-RAM UJ-861H Adapter: 1 ID: 0

Режим чтения : Достоверность
Использование точного потока : Да
Отключение кэша аудио : Да
Использование указателей C2 : Нет

Коррекция смещения при чтении : 102
Способность читать области Lead-in и Lead-out : Нет
Заполнение пропущенных сэмплов тишиной : Да
Удаление блоков с тишиной в начале и конце : Нет
При вычислениях CRC использовались нулевые сэмплы : Да
Интерфейс : Встроенный Win32-интерфейс для Win NT/2000

Выходной формат : Пользовательский кодировщик
Выбранный битрейт : 768 kBit/s
Качество : Высокий
Добавление ID3-тэга : Нет
Утилита сжатия : C:\Program Files\Exact Audio Copy\FLAC\FLAC.EXE
Дополнительные параметры : -6 -V -T "ARTIST=%a" -T "TITLE=%t" -T "ALBUM=%g" -T "DATE=%y" -T "TRACKNUMBER=%n" -T "GENRE=%m" -T "COMMENT=%e" %s -o %d


TOC извлечённого CD

Трек | Старт | Длительность | Начальный сектор | Конечный сектор
---------------------------------------------------------------------
1 | 0:00.00 | 5:11.16 | 0 | 23340
2 | 5:11.16 | 1:28.67 | 23341 | 30007
3 | 6:40.08 | 2:45.41 | 30008 | 42423
4 | 9:25.49 | 3:42.16 | 42424 | 59089
5 | 13:07.65 | 4:15.04 | 59090 | 78218
6 | 17:22.69 | 3:37.43 | 78219 | 94536
7 | 21:00.37 | 4:45.53 | 94537 | 115964
8 | 25:46.15 | 1:48.46 | 115965 | 124110
9 | 27:34.61 | 2:04.60 | 124111 | 133470
10 | 29:39.46 | 2:52.46 | 133471 | 146416
11 | 32:32.17 | 8:34.03 | 146417 | 184969
12 | 41:06.20 | 1:12.24 | 184970 | 190393
13 | 42:18.44 | 4:19.02 | 190394 | 209820
14 | 46:37.46 | 2:12.64 | 209821 | 219784
15 | 48:50.35 | 2:59.35 | 219785 | 233244
16 | 51:49.70 | 2:56.01 | 233245 | 246445
17 | 54:45.71 | 3:04.63 | 246446 | 260308
18 | 57:50.59 | 2:18.60 | 260309 | 270718
19 | 60:09.44 | 5:00.41 | 270719 | 293259
20 | 65:10.10 | 2:47.74 | 293260 | 305858
21 | 67:58.09 | 1:05.22 | 305859 | 310755
22 | 69:03.31 | 1:21.08 | 310756 | 316838
23 | 70:24.39 | 2:07.36 | 316839 | 326399
24 | 72:32.00 | 4:39.01 | 326400 | 347325
25 | 77:11.01 | 2:00.70 | 347326 | 356395


Характеристики диапазона извлечения и сообщения об ошибках

Выбранный диапазон

Имя файла H:\Мои диски\Don Carlo Corelli Siepi Milnes Caballe Bumbry\Don Carlo 1.wav

Пиковый уровень 69.8 %
Качество диапазона 100.0 %
CRC копии B91D13C7
Копирование... OK

Ошибок не произошло

Конец отчёта

CD2 EAC LOG
Exact Audio Copy V0.99 prebeta 5 from 4. May 2009

Отчёт EAC об извлечении, выполненном 8. июля 2010, 23:12

Corelli, Caballe, Bumbry, Siepi, Milnes, Macurdy, Plishka, Amara, von Stade, Molinari-Pradelli / Don Carlo

Дисковод: MATSHITADVD-RAM UJ-861H Adapter: 1 ID: 0

Режим чтения : Достоверность
Использование точного потока : Да
Отключение кэша аудио : Да
Использование указателей C2 : Нет

Коррекция смещения при чтении : 102
Способность читать области Lead-in и Lead-out : Нет
Заполнение пропущенных сэмплов тишиной : Да
Удаление блоков с тишиной в начале и конце : Нет
При вычислениях CRC использовались нулевые сэмплы : Да
Интерфейс : Встроенный Win32-интерфейс для Win NT/2000

Выходной формат : Пользовательский кодировщик
Выбранный битрейт : 768 kBit/s
Качество : Высокий
Добавление ID3-тэга : Нет
Утилита сжатия : C:\Program Files\Exact Audio Copy\FLAC\FLAC.EXE
Дополнительные параметры : -6 -V -T "ARTIST=%a" -T "TITLE=%t" -T "ALBUM=%g" -T "DATE=%y" -T "TRACKNUMBER=%n" -T "GENRE=%m" -T "COMMENT=%e" %s -o %d


TOC извлечённого CD

Трек | Старт | Длительность | Начальный сектор | Конечный сектор
---------------------------------------------------------------------
1 | 0:00.00 | 0:53.23 | 0 | 3997
2 | 0:53.23 | 4:42.21 | 3998 | 25168
3 | 5:35.44 | 2:07.10 | 25169 | 34703
4 | 7:42.54 | 2:39.29 | 34704 | 46657
5 | 10:22.08 | 2:45.30 | 46658 | 59062
6 | 13:07.38 | 6:51.64 | 59063 | 89951
7 | 19:59.27 | 3:27.39 | 89952 | 105515
8 | 23:26.66 | 2:40.13 | 105516 | 117528
9 | 26:07.04 | 3:17.15 | 117529 | 132318
10 | 29:24.19 | 1:58.61 | 132319 | 141229
11 | 31:23.05 | 1:59.70 | 141230 | 150224
12 | 33:23.00 | 0:38.69 | 150225 | 153143
13 | 34:01.69 | 4:03.57 | 153144 | 171425
14 | 38:05.51 | 3:08.15 | 171426 | 185540
15 | 41:13.66 | 4:13.56 | 185541 | 204571
16 | 45:27.47 | 3:09.66 | 204572 | 218812
17 | 48:37.38 | 2:55.70 | 218813 | 232007
18 | 51:33.33 | 2:40.03 | 232008 | 244010
19 | 54:13.36 | 2:22.32 | 244011 | 254692
20 | 56:35.68 | 3:01.21 | 254693 | 268288
21 | 59:37.14 | 2:17.60 | 268289 | 278623
22 | 61:54.74 | 9:06.63 | 278624 | 319636
23 | 71:01.62 | 3:01.57 | 319637 | 333268
24 | 74:03.44 | 3:45.02 | 333269 | 350145
25 | 77:48.46 | 1:22.63 | 350146 | 356358


Характеристики диапазона извлечения и сообщения об ошибках

Выбранный диапазон

Имя файла H:\Мои диски\Don Carlo Corelli Siepi Milnes Caballe Bumbry\Don Carlo 2.wav

Пиковый уровень 64.0 %
Качество диапазона 100.0 %
CRC копии 08FE4811
Копирование... OK

Ошибок не произошло

Конец отчёта

Download Links List:
http://www.megaupload.com/?d=1HMPP8ZB
no password
Thanks to original uploader

ADVERTISING » Very Fast Download!



« ADVERTISING




Posted By: j657 Date: 13 Jul 2010 04:26:45
Thanks a lot for this historical and majestic performance, konchatn... now, if a kind soul could put this marble in Rapidshare, I'm sure a lot of folks will be very happy.

Thanks again in advance
Posted By: prefab Date: 13 Jul 2010 05:45:59
j657, get yourself a downloader (FreeRapid or JDownloader) and you wont't need to worry about the hosting provider anymore. Cheers.
Posted By: j657 Date: 13 Jul 2010 15:44:10
I will... thanks for your response
Posted By: hipalex Date: 13 Jul 2010 20:38:58
i really enjoy megaupload instead of rs and their ratid favor chains, many thanks for empowering free users
Posted By: drbarbaro Date: 18 Jul 2010 21:49:28
Many thanks for this great recording. I just love the way Caballé ends the opera.