Loading...

Bao Yuankai Chinese Sights and Sounds (2006)

Posted By : Su_Lihua | Date : 23 Jun 2011 04:25:18 | Comments : 1 |
|



Bao Yuankai Chinese Sights and Sounds (2006)
EAC Rip | FLAC, IMG+CUE, LOG | 2 CD | Cover | 317 MB
Classical/20th Century | Label: People's Music Publishing House
Cat.: ISBN:9787103035467 | RS/MU

Bao Yuankai is among China's most beloved classical composers. Writing, for the most part in the officially sanctioned 'Pentatonic Romanticism' idiom, Bao's music frequently draws upon regional folk songs and traditional Chinese culture for inspiration. Among his most popular works are the 24 sketches for piano known as "Chinese Sights and Scenes." Over the years, selections for this collection have been arranged for every conceivable combination of Chinese and western instruments, even vocal arrangements. Bao himself would orchestrate 16 of the pieces himself. The current collection features all 24 sketches in their original versions for solo piano, performed by Zhu Peibin.
From the composer's website:
Yuankai Bao is a Chinese composer and music educator, who graduated from the Central Conservatory of Music in 1967. He has been a professor of the Tianjin Conservatory of Music since 1973. He also serves as the Deputy Director of the Composition Committee of the Chinese Musicians’ Association, the Director of Arts Institute at Xiamen University, and executive member of the China Sun Yat-sen Cultural Exchange Association. He was member of Music Research, one of the major academic journals in the country, as well as a member of the panel of judges for the composition competition “Golden Bell Awards”. In recognition of his dedication and achievements towards music education and composition, Mr. Bao was one of the first music educators to receive the special grant from the Chinese State Council and the “Outstanding Music Educator” Award from the Chinese Ministry of Culture.

Mr. Bao's compositions include Chinese Sights and Sounds: 24 Themes on Chinese Folk Tunes, for orchestra; Sketches of Taiwan, orchestral suite; Symphony No.1 (‘Commemoration’); Symphony No. 2 (‘Sketch of War’); Symphony No. 3 (‘Peking Opera”, Symphony No. 4 (‘Amoy’); and the oratorio The King Yu, performed by the Four Seasons children’s chorus and the Jingpo National Children's Folk Rhyme.

Tracks:
CD 1

1. Little Cabbage
2. The Little Cowherd
3. Jasmine
4. Can You Guess What Flower It Is
5. Flowing Stream
6. Song of Wrangler
7. Blossoming for Rainwater
8. Song of Riddles
9. A Girl Who Carries Water
10. The Amusing Couple
11. Going to Jiangzhou
12. Lan Huahua
CD 2
13. Expecting the Blossom of Scholar tree
14. Yellow Poplar Shouldering Pole
15. Embroider a Pouch
16. Happy Sunrise
17. The Scenery of Wuxi
18. Green Willow
19. Pulling out a Reed Catkin
20. Bamboo-flute Tune
21. Going to West Gate
22. Happy Lantern Festival
23. Mountain Tune
24. Going to Watch Yangge Dance

EAC LOG CD 1
Exact Audio Copy V1.0 beta 1 from 15. November 2010

EAC extraction logfile from 5. June 2011, 12:19

Bao Yuankai / Chinese Sites and Sounds - CD 1

Used drive : TSSTcorpCD/DVDW SH-S182M Adapter: 3 ID: 0

Read mode : Secure
Utilize accurate stream : Yes
Defeat audio cache : No
Make use of C2 pointers : Yes

Read offset correction : 6
Overread into Lead-In and Lead-Out : No
Fill up missing offset samples with silence : Yes
Delete leading and trailing silent blocks : No
Null samples used in CRC calculations : No
Used interface : Native Win32 interface for Win NT & 2000

Used output format : Internal WAV Routines
Sample format : 44.100 Hz; 16 Bit; Stereo


TOC of the extracted CD

Track | Start | Length | Start sector | End sector
---------------------------------------------------------
1 | 0:00.00 | 4:04.74 | 0 | 18373
2 | 4:04.74 | 2:45.51 | 18374 | 30799
3 | 6:50.50 | 3:36.68 | 30800 | 47067
4 | 10:27.43 | 4:07.58 | 47068 | 65650
5 | 14:35.26 | 5:09.07 | 65651 | 88832
6 | 19:44.33 | 2:05.33 | 88833 | 98240
7 | 21:49.66 | 2:40.08 | 98241 | 110248
8 | 24:29.74 | 2:43.09 | 110249 | 122482
9 | 27:13.08 | 6:24.20 | 122483 | 151302
10 | 33:37.28 | 1:49.52 | 151303 | 159529
11 | 35:27.05 | 2:24.05 | 159530 | 170334
12 | 37:51.10 | 6:35.18 | 170335 | 199977


Range status and errors

Selected range

Filename L:\227465\1st_partition\Documents and Settings\HP_Administrator\Desktop\Music Rips\Chinese Composers\BYK_CSS\Bao Yuankai - Chinese Sites and Sounds - CD 1.wav

Peak level 89.4 %
Extraction speed 1.1 X
Range quality 100.0 %
Copy CRC F8D3DC9A
Copy OK

No errors occurred


AccurateRip summary

Track 1 not present in database
Track 2 not present in database
Track 3 not present in database
Track 4 not present in database
Track 5 not present in database
Track 6 not present in database
Track 7 not present in database
Track 8 not present in database
Track 9 not present in database
Track 10 not present in database
Track 11 not present in database
Track 12 not present in database

None of the tracks are present in the AccurateRip database

End of status report

==== Log checksum 2C3AEC9890CC4270D861DABF8FCA2D5FB39E5952033320C04E17A5A5021E0848 ====

EAC LOG CD 2

Exact Audio Copy V1.0 beta 1 from 15. November 2010

EAC extraction logfile from 5. June 2011, 13:00

Bao Yuankai / Chinese Sites and Sounds CD 2

Used drive : TSSTcorpCD/DVDW SH-S182M Adapter: 3 ID: 0

Read mode : Secure
Utilize accurate stream : Yes
Defeat audio cache : No
Make use of C2 pointers : Yes

Read offset correction : 6
Overread into Lead-In and Lead-Out : No
Fill up missing offset samples with silence : Yes
Delete leading and trailing silent blocks : No
Null samples used in CRC calculations : No
Used interface : Native Win32 interface for Win NT & 2000

Used output format : Internal WAV Routines
Sample format : 44.100 Hz; 16 Bit; Stereo


TOC of the extracted CD

Track | Start | Length | Start sector | End sector
---------------------------------------------------------
1 | 0:00.00 | 5:40.52 | 0 | 25551
2 | 5:40.52 | 2:59.47 | 25552 | 39023
3 | 8:40.24 | 2:44.61 | 39024 | 51384
4 | 11:25.10 | 2:12.47 | 51385 | 61331
5 | 13:37.57 | 4:42.02 | 61332 | 82483
6 | 18:19.59 | 1:09.29 | 82484 | 87687
7 | 19:29.13 | 2:01.67 | 87688 | 96829
8 | 21:31.05 | 3:17.57 | 96830 | 111661
9 | 24:48.62 | 4:24.59 | 111662 | 131520
10 | 29:13.46 | 3:19.18 | 131521 | 146463
11 | 32:32.64 | 3:36.30 | 146464 | 162693
12 | 36:09.19 | 3:46.52 | 162694 | 179695


Range status and errors

Selected range

Filename L:\227465\1st_partition\Documents and Settings\HP_Administrator\Desktop\Music Rips\Chinese Composers\BYK_CSS\CD 2\Bao Yuankai - Chinese Sites and Sounds CD 2.wav

Peak level 95.4 %
Extraction speed 0.6 X
Range quality 100.0 %
Copy CRC 34763A75
Copy OK

No errors occurred


AccurateRip summary

Track 1 not present in database
Track 2 not present in database
Track 3 not present in database
Track 4 not present in database
Track 5 not present in database
Track 6 not present in database
Track 7 not present in database
Track 8 not present in database
Track 9 not present in database
Track 10 not present in database
Track 11 not present in database
Track 12 not present in database

None of the tracks are present in the AccurateRip database

End of status report

==== Log checksum F5F3C0250FCD61959A6BD45C3C6C0A73BB4183E90DE434824D531E90AE2ABEA8 ====




ADVERTISING » Very Fast Download!



« ADVERTISING




Posted By: kosciusko Date: 24 Dec 2012 14:39:57
Hello, Any chance of a reload? Thanks