Loading...

Juan Gutierrez de Padilla - Mexico Barroco: Puebla II - Missa "Ego Flos Campi"

Posted By : iVic | Date : 08 Jul 2010 00:16:24 | Comments : 5 |
|



Juan Gutierrez de Padilla - Mexico Barroco: Puebla II - Missa "Ego Flos Campi"
Benjamín Juárez Echenique (Conducer) - Angelicum de Puebla, Schola Cantorum & Niños Cantores de la UNAM (Performers)
EAC Rip | FLAC + CUE | LOG | 1CD | 225 MB | Cover | RAR
Genre: Classical Baroque | Label: URTEXT | Year: 1996


This C.D. unveils for us after 340 years of slumber, this magnificent masterpiece by Juan Gutiérrez Padilla, chapel master of Puebla’s cathedral. Written for double choir the grandiose Missa Ego Flos Campi represents the height of Gutiérrez Padilla’s musical productions. This historical performance on period instruments and historical organs is one of many fruits of four decades of musicological research by E. Thomas Standford in the archives of Mexican City and Puebla cathedrals.


EAC LOG
Exact Audio Copy V0.99 prebeta 5 from 4. May 2009

Archivo Log de extracciones desde 6. Julio 2010, 18:00

Juan Gutierrez de Padilla / Mexico Barroco - Puebla II

Usar unidad : Optiarc DVD RW AD-7590S Adapter: 1 ID: 0

Modo de Lectura : Seguro
Utilizar Corriente Exacta : Sí
Descartar Audio caché : No
Utilizar los punteros C2 : Sí

Corrección de Desplazamiento de Lectura : 0
Sobreleer tanto en Lead-In como en Lead-Out : No
Rellenar las muestras faltantes con silencios : Sí
Eliminar silencios inicial y final : No
Se han usado muestras nulas en los cálculos CRC : Sí
Interfaz usada : Interfaz propio de Win32 para Windowns NT y 2000

Formato de Salida utilizado : Compresor definido por el usuario
Bitrate seleccionado : 192 kBit/s
Calidad : Alta
Añadir Etiqueta ID3 : No
Compresor de linea de comandos : C:\Program Files\Exact Audio Copy\Flac\flac.exe
Opciones adicionales en línea de comandos : -8 -T "artist=%a" -T "title=%t" -T "album=%g" -T "date=%y" -T "tracknumber=%n" -T "genre=%m" %s


TOC del CD extraido

Pista | Inicio | Duración | Sector inicial | Sector final
-------------------------------------------------------------
1 | 0:00.00 | 2:31.12 | 0 | 11336
2 | 2:31.12 | 2:54.45 | 11337 | 24431
3 | 5:25.57 | 1:48.65 | 24432 | 32596
4 | 7:14.47 | 2:57.15 | 32597 | 45886
5 | 10:11.62 | 0:59.10 | 45887 | 50321
6 | 11:10.72 | 3:26.68 | 50322 | 65839
7 | 14:37.65 | 3:05.22 | 65840 | 79736
8 | 17:43.12 | 2:03.45 | 79737 | 89006
9 | 19:46.57 | 0:48.23 | 89007 | 92629
10 | 20:35.05 | 2:45.20 | 92630 | 105024
11 | 23:20.25 | 5:24.02 | 105025 | 129326
12 | 28:44.27 | 0:55.00 | 129327 | 133451
13 | 29:39.27 | 0:49.40 | 133452 | 137166
14 | 30:28.67 | 1:54.03 | 137167 | 145719
15 | 32:22.70 | 1:31.52 | 145720 | 152596
16 | 33:54.47 | 3:00.65 | 152597 | 166161
17 | 36:55.37 | 1:12.45 | 166162 | 171606
18 | 38:08.07 | 0:38.35 | 171607 | 174491
19 | 38:46.42 | 0:52.53 | 174492 | 178444
20 | 39:39.20 | 1:57.40 | 178445 | 187259
21 | 41:36.60 | 6:01.12 | 187260 | 214346


Gama de estados y errores

Seleccionar gama

Nombre de Archivo C:\Users\Administrador\Music\EAC\Juan Gutierrez de Padilla - Mexico Barroco - Puebla II.wav

Nivel Pico 98.8 %
Gama de Calidad 100.0 %
Copiar CRC 2FD8CDA8
Copia OK

Sin Errores

Final del Informe


Tracklist.

1. Tiento XXV de sexto tono 2:34
2 .INTROITUS 2:53
3. KYRIE 1:49
4. Gloria 2:56
5. GRADUALE Farbodon del sexto tono I:llano. 0:54
6. Ego flos campi 1:45
7. Tiento en 6 3:05
8. Ego flos campi 4 1:21
9. Fabordón del sexto tono II: glosado en el tiple 0:47
10. ALLELUIA Alleluia. Asumpta est Maria in caelum 2:45
11. Credo 5:24
12. Forbodon del sexto tono III: Glosado en las voces intermedia 0:55
13. Forbodon del sexto tono IV: Glosado en el baxo 0:51
14. OFFERTORIUM Assumpta est Maria 1:54
15. SANCTUS 1:31
16. ELEVATIO Glosado sobre el Pange Lingua de Urreda 3:01
17. AGNUS DEI 1:18
18. Forbodon glosado VI de sexto tono 0:37
19. COMMUNIO Beatam me dicem omnes generationes 0:53
20. Fantasia Primi Toni 1:59
21. SALVE REGINA 6:01



Download Part 1
Download Part 2
Download Part 3


Password: Guanajuato

No Mirrors, PLEASE!

ADVERTISING » Very Fast Download!



« ADVERTISING




Posted By: profrat Date: 08 Jul 2010 02:21:52
Thank you, and thank you even more for providing this in .flac format.
Posted By: eleutealado Date: 08 Jul 2010 04:53:29
Guanajuato, muchas gracias. ¿Vas a resubir los anteriores discos de Padilla que compartiste anteriormente en formato flac?

Un saludo
Posted By: iVic Date: 08 Jul 2010 19:25:43
@profrat: I'm glad you liked this material.
@eleutealado: Sí, en unos días subo en flac. Saludos!
Posted By: melovinco Date: 08 Jul 2010 19:54:16
Thank you very much. I like this Mexico Barroco series.
Posted By: iVic Date: 08 Jul 2010 20:16:44
@melovinco: Great, melovinco! That was the aim. I'm gonna upload the other ones in FLAC format. Cheers!