Loading...

Gubaidulina, Schnittke, Suslin, Part - Russian Chamber Music (Geringas, Schatz, Krapp, Stenkeler, Zien)

Posted By : 54ajax | Date : 23 Aug 2011 09:46:07 | Comments : 5 |
|



Gubaidulina, Schnittke, Suslin, Part - Russian Chamber Music (Geringas, Schatz, Krapp, Stenkeler, Zien)
EAC Rip | FLAC+CUE+LOG | Covers + Booklet | 202 MB | Filesonic + Uploadstation
20th/21st Century Classical - Contemporary | 1991 | Koch

Sofia Gubaidulina (b. 1931), growing up in the Tatar Republic, bound peculiar fusion of Eastern and Western into dramatic polarities in her later work. She graduated from the Kazan' Conservatory in 1954 having studied composition and piano; she then left for Moscow, where she studied at the Conservatory with Nikolay Peyko until 1959, and then with Shebalin until 1963. Already by this time, Gubaidulina was marked as an "irresponsible" composer on "a mistaken path"; Shostakovich, among others, supported her however, advising her to "continue along [her] mistaken path." Today Gubaidulina is a successful freelance composer, having won a number of prestigious composition prizes and grants.
On this CD also works by Schnittke, Suslin and Pärt

Tracklist

01. Sonate für Violoncello und Klavier - Alfred Schnittke [0:18:10.16]
02. In Croce - Sofia Gubaidulina [0:13:57.00]
03. Sonate für Violincello und Schlagzeug - Viktor Suslin [0:13:13.50]
04. Spiegel im Spiegel - Arvo Pärt [0:08:14.49]

EAC-log

Exact Audio Copy V1.0 beta 1 from 15. November 2010

EAC extraction logfile from 21. August 2011, 0:03

Sofia Gubaidulina, Schnittke, Suslin, Part / Russische Kammermusik (Geringas - Crllo, Schatz - Klavier, Krapp - Orgel, Stenkeler & Zien - Schlagzeug)

Used drive : TSSTcorpCDDVDW SH-S223C Adapter: 1 ID: 1

Read mode : Secure
Utilize accurate stream : Yes
Defeat audio cache : No
Make use of C2 pointers : Yes

Read offset correction : 697
Overread into Lead-In and Lead-Out : No
Fill up missing offset samples with silence : Yes
Delete leading and trailing silent blocks : No
Null samples used in CRC calculations : Yes
Used interface : Native Win32 interface for Win NT & 2000

Used output format : User Defined Encoder
Selected bitrate : 896 kBit/s
Quality : High
Add ID3 tag : No
Command line compressor : C:\Program Files (x86)\Exact Audio Copy\FLAC\FLAC.EXE
Additional command line options : -V -0 -T "artist=%a" -T "title=%t" -T "album=%g" -T "date=%y" -T "tracknumber=%n" -T "genre=%m" %s


TOC of the extracted CD

Track | Start | Length | Start sector | End sector
---------------------------------------------------------
1 | 0:00.00 | 18:10.12 | 0 | 81761
2 | 18:10.12 | 13:57.00 | 81762 | 144536
3 | 32:07.12 | 13:13.38 | 144537 | 204049
4 | 45:20.50 | 8:14.37 | 204050 | 241136


Range status and errors

Selected range

Filename F:\Documenten van Martin\Mijn muziek\Gubaidulina, Sofia\Gubaidulina23\Sofia Gubaidulina, Schnittke, Suslin, Part - Russische Kammermusik (Geringas - Crllo, Schatz - Klavier, Krapp - Orgel, Stenkeler & Zien - Schlagzeug).wav

Peak level 100.0 %
Extraction speed 3.7 X
Range quality 100.0 %
Test CRC ECF7F5EC
Copy CRC ECF7F5EC
Copy OK

No errors occurred


AccurateRip summary

Track 1 cannot be verified as accurate (confidence 1) [16614CCF], AccurateRip returned [0B6850E1]
Track 2 cannot be verified as accurate (confidence 1) [A9CEFC49], AccurateRip returned [A13F4EFA]
Track 3 cannot be verified as accurate (confidence 1) [0B6DD904], AccurateRip returned [20D84717]
Track 4 cannot be verified as accurate (confidence 1) [0C47C9D7], AccurateRip returned [2CA08CCF]

No tracks could be verified as accurate
You may have a different pressing from the one(s) in the database

End of status report

==== Log checksum 757921BC140FC3628F167C9273785FB132885A1DEF0273DB988A52A899C1A7D0 ====


Download-links

No Mirrors Please

filesonic

uploadstation


For more contemporary classics, ballets and operas have a look at:

54ajax's avaxblog

ADVERTISING » Very Fast Download!



« ADVERTISING




Posted By: Guife Date: 23 Aug 2011 11:48:08
Estimado 54ajax, parece que se te ha olvidado la música del disco y en los rar solo están las imágenes. Saludos, Guife
Posted By: inau Date: 23 Aug 2011 13:17:43
Большое спасибо!
Posted By: 54ajax Date: 23 Aug 2011 15:19:40
@guife
I don't understand spanish, so I don't know what you mean. You have to use winrar to "unrar" the files. You can than use the Flac en Cue files to burn a CD. For that you can use for instance burnnn http://www.burrrn.net/download/burrrn_package.exe
Posted By: loomer Date: 01 Sep 2011 10:02:18
Thanks a lot!
Posted By: Madlej1 Date: 13 Nov 2011 18:01:43
thanks :D:D:D