Loading...

Rodion Shchedrin - Cello Concerto, Seagull Suite (Olli Mustonen)

Posted By : 54ajax | Date : 06 Jul 2011 07:05:43 | Comments : 5 |
|



Rodion Shchedrin - Cello Concerto, Seagull Suite (Olli Mustonen)
EAC Rip | FLAC+CUE+LOG | Covers + Booklet | 273 MB | Filesonic + Fileserve
20th/21st Century Classical - Contemporary | 2000 | Ondine

The son of a music theorist and writer, composer Rodion Shchedrin (b. 1932) was encouraged in his musical interests from a very young age. Not long after his graduation, Shchedrin began what has become one of his best-known works, the ballet The little humpbacked horse (1956). In the mid-'60s, Shchedrin started to incorporate modern sounds and techniques like tone-rows and aleatorics (chance elements) into works like his Symphony No. 2 (1962-1965) and the Piano Concerto No. 2 (1966). Since that time, Shchedrin has consistently exhibited an eclectic taste; elements of the avant-garde, neo-Classicism, folk, jazz, and pop music have all played roles in his music, which he has called "post-avant-garde."

Tracklist

01. Cello Concerto 'sotto voce concerto': I. Sostenuto [0:07:41.64]
02. II. Allegretto moderato [0:14:12.25]
03. III. Scherzo - cadenza [0:03:46.93]
04. IV. Finale [0:12:59.94]
05. Seagull Suite: I. Moderato appassionato [0:03:27.80]
06. - Interlude [0:01:44.09]
07. II. Andante, sempre rubato [0:04:52.61]
08. III. L'istesso tempo [0:04:18.25]
09. - Interlude [0:01:42.13]
10. IV. Moderato statico [0:02:49.46]
11. V. Moderato appassionato [0:02:07.05]

EAC-log

Exact Audio Copy V1.0 beta 1 from 15. November 2010

EAC extraction logfile from 29. June 2011, 11:13

Rodion Shchedrin / Cello Concerto, Seagull Suite (Olli Mustonen)

Used drive : TSSTcorpCDDVDW SH-S223C Adapter: 1 ID: 1

Read mode : Secure
Utilize accurate stream : Yes
Defeat audio cache : Yes
Make use of C2 pointers : No

Read offset correction : 697
Overread into Lead-In and Lead-Out : No
Fill up missing offset samples with silence : Yes
Delete leading and trailing silent blocks : No
Null samples used in CRC calculations : Yes
Used interface : Native Win32 interface for Win NT & 2000

Used output format : User Defined Encoder
Selected bitrate : 896 kBit/s
Quality : High
Add ID3 tag : No
Command line compressor : C:\Program Files (x86)\Exact Audio Copy\FLAC\FLAC.EXE
Additional command line options : -6 -V -T "ARTIST=%a" -T "TITLE=%t" -T "ALBUM=%g" -T "DATE=%y" -T "TRACKNUMBER=%n" -T "GENRE=%m" -T "COMMENT=%e" %j--picture="%i"%j %s -o %d


TOC of the extracted CD

Track | Start | Length | Start sector | End sector
---------------------------------------------------------
1 | 0:00.00 | 7:41.48 | 0 | 34622
2 | 7:41.48 | 14:12.19 | 34623 | 98541
3 | 21:53.67 | 3:46.70 | 98542 | 115561
4 | 25:40.62 | 12:59.71 | 115562 | 174057
5 | 38:40.58 | 3:27.60 | 174058 | 189642
6 | 42:08.43 | 1:44.07 | 189643 | 197449
7 | 43:52.50 | 4:52.46 | 197450 | 219395
8 | 48:45.21 | 4:18.19 | 219396 | 238764
9 | 53:03.40 | 1:42.10 | 238765 | 246424
10 | 54:45.50 | 2:49.35 | 246425 | 259134
11 | 57:35.10 | 2:07.04 | 259135 | 268663


Range status and errors

Selected range

Filename F:\Shchedrin\Shchedrin23\Rodion Shchedrin - Cello Concerto, Seagull Suite (Olli Mustonen).wav

Peak level 98.0 %
Extraction speed 1.5 X
Range quality 100.0 %
Test CRC E74DC40B
Copy CRC E74DC40B
Copy OK

No errors occurred


AccurateRip summary

Track 1 not present in database
Track 2 not present in database
Track 3 not present in database
Track 4 not present in database
Track 5 not present in database
Track 6 not present in database
Track 7 not present in database
Track 8 not present in database
Track 9 not present in database
Track 10 not present in database
Track 11 not present in database

None of the tracks are present in the AccurateRip database

End of status report

==== Log checksum E0139EEA45D13AD1129CE4811B987BE2D8E19CDA78DF975E538722BD494958FE ====


Download-links

No Mirrors Please

filesonic

fileserve


For more contemporary classics, ballets and operas have a look at:

54ajax's avaxblog

ADVERTISING » Very Fast Download!



« ADVERTISING




Posted By: AltvioolToon Date: 06 Jul 2011 12:51:23
Many thanks and regards from The Netherlands.
Posted By: Piterets Date: 06 Jul 2011 14:24:12
Спасибо за все диски Щедрина!
Posted By: velahsrab Date: 06 Jul 2011 17:25:59
Thank you. As you can see I am DL them one by one.
Thank you also for the tip of the spliter.
BTW what is the different between m3u and msu8?
your fan,
Baruch.
Posted By: KeithP Date: 06 Jul 2011 17:56:28
Thank you again - it is really exciting to log in every day with such wonderful offerings.
Posted By: oXbow Date: 08 Jul 2011 07:05:13
Thanks for a great share