Loading...

Glazunov - The Complete Solo Piano Music 3 (Coombs) [repost]

Posted By : tapaz9 | Date : 09 Nov 2012 03:14:28 | Comments : 7 |
|



Glazunov - The Complete Solo Piano Music 3 (Coombs) [repost]
Classical | EAC: FLAC+Cue+Log | 1 Cd, Covers + Booklet | 210 Mb
Label: Hyperion - Date: 1996

This recording, the third in the series of Glazunov's solo piano works, features the six Preludes and Fugues which the composer wrote between 1899 and 1926. Op 62 is the earliest set and is conceived on a grand scale, also existing in an alternative version for symphonic organ. The piano writing is of great complexity and is clearly intended to show off the performer's technical prowess, with the musical lines written sometimes in thirds, sixths and even chords. The four Op 101 Preludes and Fugues date from 1918 and are a quite remarkable achievement: proof to a sometimes mocking world that Glazunov could still triumph in this most intellectual of genres many years after others had given up trying. Something of the same could be said of the 1926 Prelude and Fugue in E minor: there is a great confidence in the musical material which, like the Idylle, Op 103, written in the same year, is surprising considering Glazunov's poor health and general difficulties at the time.


Tracks:

01. Prelude and Fugue in D minor Op.62 I Prelude [0:03:20.33]
02. Prelude and Fugue in D minor Op.62 II Fugue [0:07:45.24]
03. Four Preludes and Fugues Op.101-1 in A minor I Prelude [0:04:27.51]
04. Four Preludes and Fugues Op.101-1 in A minor II Fugue [0:09:29.48]
05. Four Preludes and Fugues Op.101-2 in C sharp minor I Prelude [0:02:18.08]
06. Four Preludes and Fugues Op.101-2 in C sharp minor II Fugue [0:06:36.73]
07. Four Preludes and Fugues Op.101-3 in C minor I Prelude [0:02:52.28]
08. Four Preludes and Fugues Op.101-3 in C minor II Fugue [0:04:32.32]
09. Four Preludes and Fugues Op.101-4 in C I Prelude [0:02:34.06]
10. Four Preludes and Fugues Op.101-4 in C II Fugue [0:04:36.31]
11. Prelude and Fugue in E minor (1926) I Prelude [0:03:12.54]
12. Prelude and Fugue in E minor (1926) II Fugue [0:08:34.39]

EAC Log

Exact Audio Copy V1.0 beta 3 from 29. August 2011

EAC extraction logfile from 31. October 2012, 0:21

Glazunov / The Complete Solo Piano Music 3 (Coombs)

Used drive : TSSTcorpCDDVDW SH-S223C Adapter: 2 ID: 1

Read mode : Secure
Utilize accurate stream : Yes
Defeat audio cache : Yes
Make use of C2 pointers : No

Read offset correction : 697
Overread into Lead-In and Lead-Out : No
Fill up missing offset samples with silence : Yes
Delete leading and trailing silent blocks : No
Null samples used in CRC calculations : Yes
Used interface : Native Win32 interface for Win NT & 2000

Used output format : User Defined Encoder
Selected bitrate : 896 kBit/s
Quality : High
Add ID3 tag : No
Command line compressor : C:\Program Files (x86)\Exact Audio Copy\FLAC\FLAC.EXE
Additional command line options : -V -0 -T "COMMENT=Ripped by Tapaz9" -T "artist=%artist%" -T "title=%title%" -T "album=%albumtitle%" -T "date=%year%" -T "tracknumber=%tracknr%" -T "genre=%genre%" %source%


TOC of the extracted CD

Track | Start | Length | Start sector | End sector
---------------------------------------------------------
1 | 0:00.00 | 3:20.33 | 0 | 15032
2 | 3:20.33 | 7:45.24 | 15033 | 49931
3 | 11:05.57 | 4:27.51 | 49932 | 70007
4 | 15:33.33 | 9:29.48 | 70008 | 112730
5 | 25:03.06 | 2:18.08 | 112731 | 123088
6 | 27:21.14 | 6:36.73 | 123089 | 152861
7 | 33:58.12 | 2:52.28 | 152862 | 165789
8 | 36:50.40 | 4:32.32 | 165790 | 186221
9 | 41:22.72 | 2:34.06 | 186222 | 197777
10 | 43:57.03 | 4:36.31 | 197778 | 218508
11 | 48:33.34 | 3:12.54 | 218509 | 232962
12 | 51:46.13 | 8:34.39 | 232963 | 271551


Range status and errors

Selected range

Filename F:\Musique\Glazunov\Glazunov_PianoMusicVol3\Glazunov - The Complete Solo Piano Music 3 (Coombs).wav

Peak level 100.0 %
Extraction speed 14.5 X
Range quality 100.0 %
Copy CRC 72186999
Copy OK

No errors occurred

End of status report

==== Log checksum 34DF10F335106AFABDAF8A1012A8036D35DA3D2BD7D382B23756E6EF839A95E5 ====

Check out my other classical music posts at My Avax blog

No Mirrors and Torrent-uploads please

ADVERTISING » Very Fast Download!



« ADVERTISING




Posted By: kschin2 Date: 09 Nov 2012 03:48:02
Thank you x3 for volume 3 repost.
Posted By: đorđe Date: 09 Nov 2012 14:27:51
Thank you tapaz9.
Posted By: itadiegues Date: 09 Nov 2012 16:40:18
Thank you tapaz9.
Posted By: H2Hummus Date: 09 Nov 2012 17:31:30
thank you

They have stopped deceiving you, not loving you.
And it seems to you that they have stopped loving you.
antonio porchia - Voices
Posted By: MatthewKons Date: 09 Nov 2012 18:45:03
Thank you.
Posted By: oak Date: 09 Nov 2012 19:35:02
Thanks a lot, a very nice set.
Posted By: matongsai Date: 13 Dec 2012 10:10:18
Thanks a lot.