Loading...

Roland Dyens – Citrons Doux (2001)

Posted By : d'Avignon | Date : 22 Oct 2013 02:44:00 | Comments : 3 |
|



Roland Dyens – Citrons Doux (2001)
Classical/Various style periods | FLAC lossless | cuesheets+log | covers+booklet | 56m27s | 170mb
Label: GHA | cat. no. GHA 126.059


A request from an avax user.

Perhaps this is not a spectacular album in the sense “Friday Night in San Francisco” is, or any of Segovia’s; but it shows the serious student of classical guitar how it is done: you’ll find quiet, clean playing here, and an impeccable technique.

Tracks:

01. Federico Moreno Torroba - Torija [0:02:15.35]
02. Roland Dyens - Hommage a Frank Zappa [0:09:13.34]
03. Roland Dyens - Valse des loges [0:04:56.57]
04. Tony Murena - Indifference [0:05:07.03]
05. Fernando Sor - Mes ennius [0:05:29.23]
06. Roland Dyens - Flying wings [0:02:58.39]
07. Frederic Chopin - Valse opus posthume 69 n.1 [0:03:43.28]
08. Frederic Chopin - Valse opus posthume 69 n.2 [0:03:48.26]
09. Augustin Barrios Mangorè - Valse n.3 [0:05:32.07]
10. Frederic Chopin - Mazurka opus 68 n.4 [0:02:53.44]
11. Silvius Leopold Weiss - Courante [0:02:28.66]
12. Silvius Leopold Weiss - Aria [0:04:01.21]
13. Roland Dyens - Citrons doux [0:03:59.66]

Performer

Roland Dyens

EAC LOG
Exact Audio Copy V1.0 beta 2 from 29. April 2011

EAC extraction logfile from 4. April 2012, 1:30

Roland Dyens / Citrons Doux

Used drive : TSSTcorpCDDVDW SH-S222L Adapter: 0 ID: 0

Read mode : Secure
Utilize accurate stream : Yes
Defeat audio cache : Yes
Make use of C2 pointers : No

Read offset correction : 6
Overread into Lead-In and Lead-Out : No
Fill up missing offset samples with silence : Yes
Delete leading and trailing silent blocks : No
Null samples used in CRC calculations : No
Used interface : Native Win32 interface for Win NT & 2000

Used output format : User Defined Encoder
Selected bitrate : 768 kBit/s
Quality : High
Add ID3 tag : No
Command line compressor : C:\Program Files\Exact Audio Copy\FLAC\FLAC.EXE
Additional command line options : -6 -V -T "ARTIST=%artist%" -T "TITLE=%title%" -T "ALBUM=%albumtitle%" -T "DATE=%year%" -T "TRACKNUMBER=%tracknr%" -T "GENRE=%genre%" -T "COMMENT=%comment%" -T "BAND=%albuminterpret%" -T "COMPOSER=%composer%" %haslyrics%--ta


TOC of the extracted CD

Track | Start | Length | Start sector | End sector
---------------------------------------------------------
1 | 0:00.00 | 2:15.35 | 0 | 10159
2 | 2:15.35 | 9:13.34 | 10160 | 51668
3 | 11:28.69 | 4:56.57 | 51669 | 73925
4 | 16:25.51 | 5:07.03 | 73926 | 96953
5 | 21:32.54 | 5:29.23 | 96954 | 121651
6 | 27:02.02 | 2:58.39 | 121652 | 135040
7 | 30:00.41 | 3:43.28 | 135041 | 151793
8 | 33:43.69 | 3:48.26 | 151794 | 168919
9 | 37:32.20 | 5:32.07 | 168920 | 193826
10 | 43:04.27 | 2:53.44 | 193827 | 206845
11 | 45:57.71 | 2:28.66 | 206846 | 218011
12 | 48:26.62 | 4:01.21 | 218012 | 236107
13 | 52:28.08 | 3:59.66 | 236108 | 254098


Range status and errors

Selected range

Filename E:\CLASSICAL\14.post\Dyens, Roland - Citrons Doux\Roland Dyens - Citrons Doux.wav

Peak level 100.0 %
Extraction speed 7.3 X
Range quality 100.0 %
Copy CRC FF8FDB2E
Copy OK

No errors occurred


AccurateRip summary

Track 1 accurately ripped (confidence 1) [F7CFBFFE] (AR v1)
Track 2 accurately ripped (confidence 1) [35ADD9FC] (AR v1)
Track 3 accurately ripped (confidence 1) [415939DD] (AR v1)
Track 4 accurately ripped (confidence 1) [29258E9A] (AR v1)
Track 5 accurately ripped (confidence 1) [6D4E82E9] (AR v1)
Track 6 accurately ripped (confidence 1) [E5014791] (AR v1)
Track 7 accurately ripped (confidence 1) [BA8F4ACB] (AR v1)
Track 8 accurately ripped (confidence 1) [5B1284F8] (AR v1)
Track 9 accurately ripped (confidence 1) [D2AB895A] (AR v1)
Track 10 accurately ripped (confidence 1) [FA807855] (AR v1)
Track 11 accurately ripped (confidence 1) [A27E5A65] (AR v1)
Track 12 accurately ripped (confidence 1) [1C8AE310] (AR v1)
Track 13 accurately ripped (confidence 1) [99B66B06] (AR v1)

All tracks accurately ripped

End of status report

==== Log checksum C3AA4702A62548A95C02BD2E28E65230B2481A797042394F2AD7C6CC20181630 ====

ADVERTISING » Very Fast Download!



« ADVERTISING




Posted By: masha18 Date: 10 Apr 2012 12:21:53
Thank you very much! :)
Posted By: libra_winmx Date: 10 Apr 2012 18:09:57
Thanks a lot, d'Avignon!!!!!
Gracias,

libra, from Brazil, Rio de Janeiro
Posted By: mitsaoua Date: 12 Apr 2012 02:29:26
Excellent - thank you