Loading...

Richard Strauss - Till Eulenspiegels Lustige Streiche, Ein Heldenleben (2009)

Posted By : pgf000 | Date : 11 Oct 2010 20:24:47 | Comments : 2 |
|



Richard Strauss - Till Eulenspiegels Lustige Streiche; Ein Heldenleben (2009)
Philarmonia Orchestra, cond. Christoph von Dohnányi
EAC Rip | FLAC+CUE+LOG | 270 Mb | no scans
MP3 CBR 320kbps | 136 MB
Classical/Symphony | Label: Signum Classics | 59:03

The two works were both recorded live at London's Royal Festival Hall, but over six years apart – Till Eulenspiegel in June 2001, before the hall's renovation, and Ein Heldenleben in late 2007 – and Signum's sound is refreshingly natural; it's a bit uncharitable to say it captures the performances 'warts and all', yet there's an honesty about engineering that employs a natural dynamic range and avoids upholstering the sound. Till Eulenspiegel is a work that delights gleefully in its brilliant surface, making few pretentions to metaphysical profundity. Ein Heldenleben, at three times the length, might similarly avoid excessive philosophising, yet requires a sure hand to prevent it degenerating into overblown pomp.

Tracklist:
1. Christoph Von Dohnanyi - Till Eulenspiegels Lustige Streiche, Op.28 (15:18)
2. Christoph Von Dohnanyi - Der Held (4:14)
3. Christoph Von Dohnanyi - Des Helden Widersacher (2:57)
4. Christoph Von Dohnanyi - Des Helden Gefahrtin (11:25)
5. Christoph Von Dohnanyi - Des Helden Walstatt (5:54)
6. Christoph Von Dohnanyi - Des Helden Friedenswerke (8:02)
7. Christoph Von Dohnanyi - Des Helden Weltflucht und Vollendung (11:13)


EAC Log
Exact Audio Copy V0.99 prebeta 5 from 4. May 2009

EAC extraction logfile from 9. October 2010, 20:58

Christoph Von Donhanyi / Strauss Till Eulenspiegels Lustige Streiche; Ein Heldenleben

Used drive : SlimtypeDVD A DS8A4S Adapter: 1 ID: 0

Read mode : Secure
Utilize accurate stream : Yes
Defeat audio cache : No
Make use of C2 pointers : No

Read offset correction : 6
Overread into Lead-In and Lead-Out : No
Fill up missing offset samples with silence : Yes
Delete leading and trailing silent blocks : No
Null samples used in CRC calculations : No
Used interface : Native Win32 interface for Win NT & 2000

Used output format : User Defined Encoder
Selected bitrate : 768 kBit/s
Quality : High
Add ID3 tag : No
Command line compressor : C:\Program Files (x86)\Exact Audio Copy\FLAC\FLAC.EXE
Additional command line options : -6 -V -T "ARTIST=%a" -T "TITLE=%t" -T "ALBUM=%g" -T "DATE=%y" -T "TRACKNUMBER=%n" -T "GENRE=%m" -T "COMMENT=%e" %s -o %d


TOC of the extracted CD

Track | Start | Length | Start sector | End sector
---------------------------------------------------------
1 | 0:00.00 | 15:18.64 | 0 | 68913
2 | 15:18.64 | 4:14.61 | 68914 | 88024
3 | 19:33.50 | 2:57.42 | 88025 | 101341
4 | 22:31.17 | 11:25.49 | 101342 | 152765
5 | 33:56.66 | 5:54.05 | 152766 | 179320
6 | 39:50.71 | 8:02.04 | 179321 | 215474
7 | 47:53.00 | 11:13.00 | 215475 | 265949


Range status and errors

Selected range

Filename C:\Music\Christoph Von Donhanyi - Strauss Till Eulenspiegels Lustige Streiche; Ein Heldenleben.wav

Peak level 100.0 %
Range quality 100.0 %
Copy CRC 4D781E93
Copy OK

No errors occurred


AccurateRip summary

Track 1 not present in database
Track 2 not present in database
Track 3 not present in database
Track 4 not present in database
Track 5 not present in database
Track 6 not present in database
Track 7 not present in database

None of the tracks are present in the AccurateRip database

End of status report



ADVERTISING » Very Fast Download!



« ADVERTISING




Posted By: otaniyulmoon Date: 02 Nov 2010 16:45:17
thank you very much!
Posted By: vennfam Date: 22 Sep 2012 02:43:00
all links hijacked by the downloadprovider con