Loading...

Bruce Cockburn - Humans [Deluxe Edition] (1980)

Posted By : L@ter | Date : 31 Jan 2010 10:25:17 | Comments : 4 |
|



Bruce Cockburn - Humans [Deluxe Edition] (1980)
EAC Rip | FLAC, IMG+CUE, LOG | 361 MB | 49,28 min | Scans
Label: Hight Romance (2003) | Folk, Rock, Jazz | + Bonus Track | RAR 3% Rec.

Long regarded as Bruce Cockburn's finest moment on record, Humans, issued in 1980, is easily the most revealing of his tomes as well. This Rounder reissue is fully remastered and contains one bonus track, a live reading of the album's opener, "Grim Travellers." Cockburn's marriage had fallen apart, he'd moved from the country to a gritty inner-city section of Toronto called Cabbagetown, and he'd begun to explore in earnest the reggae rhythms that had underscored his hit single "Wondering Where the Lions Are" from Dancing in the Dragon's Jaws. The record of a restless travelogue that has become his stock in trade as a wandering observer, activist, and minstrel with deep wanderlust, Humans is the result of great turmoil and pain, and reveals Cockburn's musical, spiritual, and emotional worldview as all in flux. More.. Cd Universe

Personnel

- Bruce Cockburn: Guitar and Vocals
- Dennis Pendrith: Bass
- Jon Goldsmith: Keyboards
- Hugh Marsh: Violin
- Patricia Cullen: Synthesizer
- Pat LaBarbera: Reeds
- Bob DiSalle: Drums
- Kathy Moses, Beverly Glen-Copeland, Rachel Paiement*: Background Vocals


Tracklist

01. Grim Travellers
02. Rumours Of Glory
03. More Not More
04. You Get Bigger As You Go
05. What About The Bond
06. How I Spent My Fall Vacation
07. Guerilla Betrayed
08. Tokyo
09. Fascist Architecture
10. The Rose Above The Sky

Bonus Track

11. Grim Travellers (Live)

Eac Log

Exact Audio Copy V0.99 prebeta 4 from 23. January 2008

EAC extraction logfile from 29. January 2010, 21:35

Bruce Cockburn / Humans [Deluxe Edition]

Used drive : HL-DT-STDVD-RAM GH22NP20 Adapter: 0 ID: 0

Read mode : Secure
Utilize accurate stream : Yes
Defeat audio cache : Yes
Make use of C2 pointers : No

Read offset correction : 102
Overread into Lead-In and Lead-Out : No
Fill up missing offset samples with silence : Yes
Delete leading and trailing silent blocks : No
Null samples used in CRC calculations : Yes
Used interface : Native Win32 interface for Win NT & 2000

Used output format : User Defined Encoder
Selected bitrate : 768 kBit/s
Quality : High
Add ID3 tag : No
Command line compressor : C:\Program Files\Exact Audio Copy\FLAC\FLAC.EXE
Additional command line options : -6 -V -T "ARTIST=%a" -T "TITLE=%t" -T "ALBUM=%g" -T "DATE=%y" -T "TRACKNUMBER=%n" -T "GENRE=%m" -T "COMMENT=%e" %s -o %d


TOC of the extracted CD

Track | Start | Length | Start sector | End sector
---------------------------------------------------------
1 | 0:00.00 | 4:49.45 | 0 | 21719
2 | 4:49.45 | 3:43.02 | 21720 | 38446
3 | 8:32.47 | 3:48.45 | 38447 | 55591
4 | 12:21.17 | 4:38.20 | 55592 | 76461
5 | 16:59.37 | 4:55.40 | 76462 | 98626
6 | 21:55.02 | 5:08.10 | 98627 | 121736
7 | 27:03.12 | 3:58.53 | 121737 | 139639
8 | 31:01.65 | 3:30.07 | 139640 | 155396
9 | 34:31.72 | 2:38.30 | 155397 | 167276
10 | 37:10.27 | 6:19.03 | 167277 | 195704
11 | 43:29.30 | 5:59.30 | 195705 | 222659


Range status and errors

Selected range

Filename C:\Bruce Cockburn - Humans [Deluxe Edition].wav

Peak level 99.9 %
Range quality 100.0 %
Copy CRC 8BDC8C69
Copy OK

No errors occurred


AccurateRip summary

Track 1 not present in database
Track 2 not present in database
Track 3 not present in database
Track 4 not present in database
Track 5 not present in database
Track 6 not present in database
Track 7 not present in database
Track 8 not present in database
Track 9 not present in database
Track 10 not present in database
Track 11 not present in database

None of the tracks are present in the AccurateRip database

End of status report

Cue Sheet

REM GENRE "Folk Rock"
REM DATE 1980
REM DISCID 750B980B
REM COMMENT "ExactAudioCopy v0.99pb4"
PERFORMER "Bruce Cockburn"
TITLE "Humans [Deluxe Edition]"
FILE "Bruce Cockburn - Humans [Deluxe Edition].flac" WAVE
TRACK 01 AUDIO
TITLE "Grim Travellers"
PERFORMER "Bruce Cockburn"
INDEX 01 00:00:00
TRACK 02 AUDIO
TITLE "Rumours Of Glory"
PERFORMER "Bruce Cockburn"
INDEX 01 04:49:45
TRACK 03 AUDIO
TITLE "More Not More"
PERFORMER "Bruce Cockburn"
INDEX 01 08:32:47
TRACK 04 AUDIO
TITLE "You Get Bigger As You Go"
PERFORMER "Bruce Cockburn"
INDEX 01 12:21:17
TRACK 05 AUDIO
TITLE "What About The Bond"
PERFORMER "Bruce Cockburn"
INDEX 01 16:59:37
TRACK 06 AUDIO
TITLE "How I Spent My Fall Vacation"
PERFORMER "Bruce Cockburn"
INDEX 01 21:55:02
TRACK 07 AUDIO
TITLE "Guerilla Betrayed"
PERFORMER "Bruce Cockburn"
INDEX 01 27:03:12
TRACK 08 AUDIO
TITLE "Tokyo"
PERFORMER "Bruce Cockburn"
INDEX 01 31:01:65
TRACK 09 AUDIO
TITLE "Fascist Architecture"
PERFORMER "Bruce Cockburn"
INDEX 01 34:31:72
TRACK 10 AUDIO
TITLE "The Rose Above The Sky"
PERFORMER "Bruce Cockburn"
INDEX 01 37:10:27
TRACK 11 AUDIO
TITLE "Grim Travellers (Live)"
PERFORMER "Bruce Cockburn"
INDEX 01 43:29:30




 Re-Up 14 April 2011 

Rapidshare | Filesonic | Fileserve

Megaupload | Depositfile


ADVERTISING » Very Fast Download!



« ADVERTISING




Posted By: wersollsschonsein Date: 31 Jan 2010 10:43:05
Cheers from Ireland.
Posted By: jgfergus Date: 29 Nov 2010 18:58:57
Files are deleted. Can you re-up? Most appreciated.
Posted By: L@ter Date: 01 Dec 2010 10:34:09
Reup 1 december 2010

Posted By: schubie Date: 07 Feb 2011 17:11:37
Thx..................