Loading...

Sylvia - Just Sylvia (1982)

Posted By : chpoof | Date : 17 May 2009 19:02:02 | Comments : 1 |
|



Sylvia - Just Sylvia (1982)
EAC Rip | FLAC File | EAC Log & Cue | Front and Back Cover Scans | RAR File (200 MB)

Just Sylvia was country singer Sylvia's sophomore release for RCA and featured her signature song, "Nobody," which reached No. 1 on the Country Singles Chart as well as No. 15 on the Pop Singles Chart, going gold. The album also went gold, peaking at No. 2 on the Country Albums Chart and No. 56 on the Pop Albums Chart. "Like Nothing Ever Happened" and "Sweet Yesterday" also performed well on the Country Singles Chart.

Released on CD during the 80's, Just Sylvia has been long out of print and remains the most sought after disc in her catalogue.

1. Nobody
2. Mirage
3. Sweet Yesterday
4. You're a Legend in Your Own Mind (Ode to T.C.)
5. You Can't Go Back Home
6. Like Nothing Ever Happened
7. I'll Make It Right With You (Dedicated to Patsy)
8. Not Tonight
9. I Feel Cheated
10. The Mill Song (Everybody's Got a Dream)

Credits:
Pete Bordonali--Mandolin, Guitar (Electric)
David Briggs--Piano, Keyboards
Jimmy Capps--Guitar
Cherry Sisters--Vocals (bckgr)
Tom Collins--Producer
Rhonda Fleming--Vocals (bckgr)
George Grantham--Vocals (bckgr)
Bill Harris--Engineer
Sherilyn Huffman--Vocals (bckgr)
Archie Jordan--Piano
Shane Keister--Synthesizer
Kenny Malone--Drums
Dennis Morgan--Guitar, Vocals (bckgr)
Nashville String Machine--Strings
Fred Newell--Mandolin, Guitar (Electric)
Bobby Ogdin--Synthesizer
Joe Osborne--Bass
Buster Phillips--Drums
Lisa Silver--Vocals (bckgr)
Sylvia--Vocals (bckgr)
Diane Tidwell--Vocals (bckgr)

NOTE: This is ripped from a CD-R that was sourced from an original CD.

EAC Log
Exact Audio Copy V0.99 prebeta 4 from 23. January 2008

EAC extraction logfile from 22. May 2009, 20:31

Sylvia / Just Sylvia

Used drive : HP DVD Writer 1170d Adapter: 1 ID: 0

Read mode : Secure
Utilize accurate stream : Yes
Defeat audio cache : Yes
Make use of C2 pointers : No

Read offset correction : 6
Overread into Lead-In and Lead-Out : No
Fill up missing offset samples with silence : Yes
Delete leading and trailing silent blocks : No
Null samples used in CRC calculations : Yes
Used interface : Native Win32 interface for Win NT & 2000

Used output format : Internal WAV Routines
Sample format : 44.100 Hz; 16 Bit; Stereo


TOC of the extracted CD

Track | Start | Length | Start sector | End sector
---------------------------------------------------------
1 | 0:00.00 | 3:22.55 | 0 | 15204
2 | 3:22.55 | 3:26.70 | 15205 | 30724
3 | 6:49.50 | 3:49.22 | 30725 | 47921
4 | 10:38.72 | 3:37.65 | 47922 | 64261
5 | 14:16.62 | 4:16.25 | 64262 | 83486
6 | 18:33.12 | 3:44.00 | 83487 | 100286
7 | 22:17.12 | 3:34.33 | 100287 | 116369
8 | 25:51.45 | 3:40.12 | 116370 | 132881
9 | 29:31.57 | 3:18.10 | 132882 | 147741
10 | 32:49.67 | 3:38.43 | 147742 | 164134


Range status and errors

Selected range

Filename C:\Documents and Settings\My Documents\My Music\Sylvia - Just Sylvia.wav

Peak level 73.1 %
Range quality 100.0 %
Copy CRC 3800CC65
Copy OK

No errors occurred


AccurateRip summary

Track 1 not present in database
Track 2 not present in database
Track 3 not present in database
Track 4 not present in database
Track 5 not present in database
Track 6 not present in database
Track 7 not present in database
Track 8 not present in database
Track 9 not present in database
Track 10 not present in database

None of the tracks are present in the AccurateRip database

End of status report


ADVERTISING » Very Fast Download!



« ADVERTISING




Posted By: CUTHBERT Date: 08 Dec 2009 08:44:11
Thank you chpoof!!