Loading...

Earth, Wind & Fire - Illumination (2005)

Posted By : denlenz777 | Date : 06 Mar 2010 12:13:11 | Comments : 3 |
|



Earth, Wind & Fire - Illumination (2005)
Funk, Jazz, Soul, R&B | EAC RIP | FLAC tracks + .cue +.log | 01:15:57 | 507 MB
Label: Warner Bros | Original Release Date: September 20, 2005

Tracklist:

01. Lovely people
02. Pure gold
03. A talking voice
04. Love's dance
05. Show me the way
06. This is how i feel
07. Work it out
08. Pass you by
09. The one
10. Elevated
11. Liberation
12. To You
13. The way you move
14. Betcha'
15. Dirty
16. Wonderland
17. All in the way

WebSite: earthwindandfire.com
Illumination is an album by R&B band Earth, Wind & Fire. It was released in September 2005 on Sanctuary Records. It featured collaborations with several artists including Jimmy Jam and Terry Lewis, Kenny G, Kelly Rowland, Will I Am, and Brian McKnight. Illumination debuted at number 32 on the Billboard 200 Chart, and number 8 on the Top R&B/Hip-Hop Albums Chart.

The album received positive reviews from critics. Raymond Fiore of Entertainment Weekly described the album as "a fluid, unforced marriage of modern beats and retro, horn-lined soul". Antony Hatfield of the BBC in his review stated that the album was a "a great all star team effort" and added that it "combines Latin, funk and soul but the likes of Raphael Saadiq, Jimmy Jam and Terry Lewis have brought a more contemporary hip-hop and R&B sound to the table".Of Illumination the Washington Post's Geoffrey Himes felt that "The EWF voices and horns are given contagious hooks for their retro sound, while underneath, the producers cook up new beats for a new century".

Illumination was Grammy nominated for Best R&B Album, was also nominated for a Soul Train Music Award in the category R&B-soul album and EWF garnered an NAACP Image Award nomination for Best Duo or Group for Illumination. The single Pure Gold reached number 23 on the Adult Contemporary chart and was also Grammy nominated in the category Best Production Non-Classical. Another single Show Me The Way, a collaboration with Raphael Saadiq was also Grammy nominated for Best R&B Performance by a Duo or Group with Vocals.

Log EAC
Exact Audio Copy V0.99 prebeta 3 from 28. July 2007

EAC extraction logfile from 6. March 2010, 12:51

Earth, Wind & Fire / Illumination

Used drive : Optiarc DVD RW AD-5200A Adapter: 1 ID: 0

Read mode : Secure
Utilize accurate stream : Yes
Defeat audio cache : Yes
Make use of C2 pointers : No

Read offset correction : 48
Overread into Lead-In and Lead-Out : No
Fill up missing offset samples with silence : Yes
Delete leading and trailing silent blocks : No
Null samples used in CRC calculations : Yes
Used interface : Installed external ASPI interface
Gap handling : Appended to previous track

Used output format : User Defined Encoder
Selected bitrate : 896 kBit/s
Quality : High
Add ID3 tag : No
Command line compressor : D:\Program Files\Exact Audio Copy\FLAC\FLAC.EXE
Additional command line options : -6 -V -T "ARTIST=%a" -T "TITLE=%t" -T "ALBUM=%g" -T "DATE=%y" -T "TRACKNUMBER=%n" -T "GENRE=%m" -T "COMMENT=%e" %s -o %d


TOC of the extracted CD

Track | Start | Length | Start sector | End sector
---------------------------------------------------------
1 | 0:00.00 | 4:29.03 | 0 | 20177
2 | 4:29.03 | 4:40.46 | 20178 | 41223
3 | 9:09.49 | 0:19.72 | 41224 | 42720
4 | 9:29.46 | 4:28.47 | 42721 | 62867
5 | 13:58.18 | 7:47.53 | 62868 | 97945
6 | 21:45.71 | 4:21.35 | 97946 | 117555
7 | 26:07.31 | 4:29.58 | 117556 | 137788
8 | 30:37.14 | 4:59.49 | 137789 | 160262
9 | 35:36.63 | 5:11.41 | 160263 | 183628
10 | 40:48.29 | 4:37.68 | 183629 | 204471
11 | 45:26.22 | 5:25.45 | 204472 | 228891
12 | 50:51.67 | 4:37.16 | 228892 | 249682
13 | 55:29.08 | 4:36.60 | 249683 | 270442
14 | 60:05.68 | 3:42.64 | 270443 | 287156
15 | 63:48.57 | 3:46.45 | 287157 | 304151
16 | 67:35.27 | 4:04.51 | 304152 | 322502
17 | 71:40.03 | 4:27.73 | 322503 | 342600


Track 1

Filename E:\MUSIC\Convert\Earth, Wind & Fire - Illumination - 01. Lovely people.wav

Pre-gap length 0:00:02.00

Peak level 100.0 %
Track quality 100.0 %
Copy CRC 2D248F5F
Track not present in AccurateRip database
Copy OK

Track 2

Filename E:\MUSIC\Convert\Earth, Wind & Fire - Illumination - 02. Pure gold.wav

Peak level 100.0 %
Track quality 100.0 %
Copy CRC AB3E84F0
Track not present in AccurateRip database
Copy OK

Track 3

Filename E:\MUSIC\Convert\Earth, Wind & Fire - Illumination - 03. A talking voice.wav

Peak level 80.4 %
Track quality 100.0 %
Copy CRC AFEDAE69
Track not present in AccurateRip database
Copy OK

Track 4

Filename E:\MUSIC\Convert\Earth, Wind & Fire - Illumination - 04. Love's dance.wav

Peak level 99.1 %
Track quality 99.9 %
Copy CRC AFCEBCF8
Track not present in AccurateRip database
Copy OK

Track 5

Filename E:\MUSIC\Convert\Earth, Wind & Fire - Illumination - 05. Show me the way.wav

Peak level 99.1 %
Track quality 100.0 %
Copy CRC EC042017
Track not present in AccurateRip database
Copy OK

Track 6

Filename E:\MUSIC\Convert\Earth, Wind & Fire - Illumination - 06. This is how i feel.wav

Peak level 99.1 %
Track quality 100.0 %
Copy CRC 19EF143D
Track not present in AccurateRip database
Copy OK

Track 7

Filename E:\MUSIC\Convert\Earth, Wind & Fire - Illumination - 07. Work it out.wav

Peak level 99.1 %
Track quality 100.0 %
Copy CRC 8E1624CE
Track not present in AccurateRip database
Copy OK

Track 8

Filename E:\MUSIC\Convert\Earth, Wind & Fire - Illumination - 08. Pass you by.wav

Peak level 99.1 %
Track quality 100.0 %
Copy CRC 531DB429
Track not present in AccurateRip database
Copy OK

Track 9

Filename E:\MUSIC\Convert\Earth, Wind & Fire - Illumination - 09. The one.wav

Peak level 99.7 %
Track quality 100.0 %
Copy CRC 671E3D58
Track not present in AccurateRip database
Copy OK

Track 10

Filename E:\MUSIC\Convert\Earth, Wind & Fire - Illumination - 10. Elevated.wav

Peak level 99.7 %
Track quality 100.0 %
Copy CRC 93D0F33F
Track not present in AccurateRip database
Copy OK

Track 11

Filename E:\MUSIC\Convert\Earth, Wind & Fire - Illumination - 11. Liberation.wav

Peak level 99.7 %
Track quality 100.0 %
Copy CRC 0B090E7E
Track not present in AccurateRip database
Copy OK

Track 12

Filename E:\MUSIC\Convert\Earth, Wind & Fire - Illumination - 12. To You.wav

Peak level 99.7 %
Track quality 100.0 %
Copy CRC 19425EB3
Track not present in AccurateRip database
Copy OK

Track 13

Filename E:\MUSIC\Convert\Earth, Wind & Fire - Illumination - 13. The way you move.wav

Peak level 99.7 %
Track quality 100.0 %
Copy CRC D183CF49
Track not present in AccurateRip database
Copy OK

Track 14

Filename E:\MUSIC\Convert\Earth, Wind & Fire - Illumination - 14. Betcha'.wav

Peak level 99.7 %
Track quality 100.0 %
Copy CRC 337C8ED3
Track not present in AccurateRip database
Copy OK

Track 15

Filename E:\MUSIC\Convert\Earth, Wind & Fire - Illumination - 15. Dirty.wav

Peak level 99.7 %
Track quality 100.0 %
Copy CRC C24FAC8D
Track not present in AccurateRip database
Copy OK

Track 16

Filename E:\MUSIC\Convert\Earth, Wind & Fire - Illumination - 16. Wonderland.wav

Peak level 99.7 %
Track quality 100.0 %
Copy CRC 95284298
Track not present in AccurateRip database
Copy OK

Track 17

Filename E:\MUSIC\Convert\Earth, Wind & Fire - Illumination - 17. All in the way.wav

Peak level 99.7 %
Track quality 99.9 %
Copy CRC 20F0C40F
Track not present in AccurateRip database
Copy OK


None of the tracks are present in the AccurateRip database

No errors occurred

End of status report


Rapidshare.com PART - 1 | PART - 2 | PART - 3
Depositfiles.com PART - 1 | PART - 2 | PART - 3


Other related news:
Earth, Wind & Fire - The Promise (2003)

ADVERTISING » Very Fast Download!



« ADVERTISING




Posted By: musician3 Date: 07 Mar 2010 12:58:23
Great.......Thank You
Posted By: tendiego Date: 08 Mar 2010 23:49:47
Very good post .. but flacs coded from mp3.
Posted By: kobe1981 Date: 13 Apr 2010 22:14:57
This is NOT loseless!!