Loading...

VA - Music For Cocktails: 10th Anniversary

Posted By : FLESH | Date : 09 Jan 2012 10:57:23 | Comments : 4 |
|


2084467

VA - Music For Cocktails: 10th Anniversary (2CD)
Electronic, Deep House, Ambient, Downtempo, Jazzdance, Easy Listening
APE [img]+cue+log | Covers | 906 Mb
Label: United | MFC004 | Country: Holland | Released: 2008

With this festive 10th Anniversary Edition we celebrate the release of the 10th Music For Cocktails album. Don't worry! This is not your average 'Best Of Album' but a tasty selection of the ultimate music around. The party is about to begin and you're on the guestlist!!! Over the years Music For Cocktails has developed a distinctive sound which is uplifting and accessible but has more than enough edge to appeal to the more knowledgeable crowd. The result is unique because on which other album would you be able to find tracks from Kraak & Smaak, Nightmares On Wax, Hollywood, Mon Amour and Fort Knox Five in perfect harmony with the amazing Jamie Lidell, Raoul Midon and French Coralie Clйment? As always it's not only music that is included, this extremely stylish album also contains a recipe booklet 'Cocktails For Music' with the coolest cocktails around.

Tracklist
CD1
1 Kylie Auldist Community - Service Annoucement
2 Jamie Lidell - Little Bit of Feel Good
3 Fort Knox Five - Papa Was Stoned
4 Deja-Move - Master of Seduction
5 Luxia - Fell In Love With The World
6 Kraak & Smaak - 10 Minutes of Pleasure
7 Guts - Bobby & Whitney
8 Guts - And The Living Is Easy Dynamics Remix
9 (Re:Jazz) - Torch Of Freedom (Frost & Wagner Horn Rub)
10 Gabin feat. Jho Jankins - It's Gonna Be
11 Slackwax - On The Road Again
12 Seelenluft - Horse With No Name
13 Bitter:Sweet - Salty Air Fort Knox Five Remix
14 Mo Hofizons - Hit The Road Jack (Pe Na Estrada)

CD2
1 Giagomo Bondi feat. The Apple Pies - Blackbird
2 Misa Criolla - Soulful Feeling
3 City Reverb - City Of Lights
4 The Bamboos feat. Alice Russell - Bring It Home
5 No Logo - Party Animal
6 Zilverzurf feat. Desmond Foster - Moment Is Gone
7 Raul Midon - Pick Somebody Up
8 7 Samurai - Jah Music
9 Nightmares on wax - Hear In Colour
10 Water - Purple Day Water Remix
11 Hollywood. Mon Amour - Cat People
12 Coralie Clement - L'Ombre Et La Lumiere
13 Monte la Rue - In The Mood
14 Bardo State - Mariposa Praful's Lovebug Remix
15 Les Adams feat. Alexis - Tell Me
16 Kidda - Strong Together

log cd1
Exact Audio Copy V0.99 prebeta 5 from 4. May 2009

EAC extraction logfile from 21. December 2010, 16:31

Various / Music For Cocktails CD1

Used drive : Optiarc DVD RW AD-7243S Adapter: 1 ID: 2

Read mode : Secure
Utilize accurate stream : Yes
Defeat audio cache : Yes
Make use of C2 pointers : No

Read offset correction : 48
Overread into Lead-In and Lead-Out : No
Fill up missing offset samples with silence : Yes
Delete leading and trailing silent blocks : No
Null samples used in CRC calculations : Yes
Used interface : Installed external ASPI interface

Used output format : Monkey's Audio Lossless Encoder v3.99 DLL
Sample format : High Lossless Compression


TOC of the extracted CD

Track | Start | Length | Start sector | End sector
---------------------------------------------------------
1 | 0:00.00 | 4:04.48 | 0 | 18347
2 | 4:04.48 | 3:01.66 | 18348 | 31988
3 | 7:06.39 | 4:26.21 | 31989 | 51959
4 | 11:32.60 | 4:18.39 | 51960 | 71348
5 | 15:51.24 | 4:35.57 | 71349 | 92030
6 | 20:27.06 | 8:39.57 | 92031 | 131012
7 | 29:06.63 | 5:44.69 | 131013 | 156881
8 | 34:51.57 | 4:10.36 | 156882 | 175667
9 | 39:02.18 | 5:16.42 | 175668 | 199409
10 | 44:18.60 | 7:42.15 | 199410 | 234074
11 | 52:01.00 | 3:00.69 | 234075 | 247643
12 | 55:01.69 | 4:00.72 | 247644 | 265715
13 | 59:02.66 | 4:01.45 | 265716 | 283835
14 | 63:04.36 | 5:40.22 | 283836 | 309357


Range status and errors

Selected range

Filename H:\AUDIO - II\Audio CD - II\ Jazz Acid - Jazz Ambient - Jazzy - Nu Jazz\ Music For Coctails 2CD (2008)\Music For Coctails CD1 (2008)\Various - Music For Cocktails CD1.ape

Peak level 96.5 %
Range quality 100.0 %
Test CRC 814EBEC3
Copy CRC 814EBEC3
Copy OK

No errors occurred


AccurateRip summary

Track 1 accurately ripped (confidence 1) [C0FD4924]
Track 2 accurately ripped (confidence 1) [2D6B3F0D]
Track 3 accurately ripped (confidence 1) [525995C3]
Track 4 accurately ripped (confidence 1) [69C9DD37]
Track 5 cannot be verified as accurate (confidence 1) [0DCC786E], AccurateRip returned [F7CC786E]
Track 6 accurately ripped (confidence 1) [F5370931]
Track 7 accurately ripped (confidence 1) [45354B56]
Track 8 accurately ripped (confidence 1) [7AF64517]
Track 9 accurately ripped (confidence 1) [BAA00304]
Track 10 accurately ripped (confidence 1) [EB345426]
Track 11 accurately ripped (confidence 1) [0D519206]
Track 12 accurately ripped (confidence 1) [52832150]
Track 13 accurately ripped (confidence 1) [19985C03]
Track 14 accurately ripped (confidence 1) [FE656C74]

13 track(s) accurately ripped
1 track(s) could not be verified as accurate

Some tracks could not be verified as accurate

End of status report

log cd2
Exact Audio Copy V0.99 prebeta 5 from 4. May 2009

EAC extraction logfile from 21. December 2010, 16:31

Various / Music For Cocktails CD 2

Used drive : YAMAHA CRW-F1E Adapter: 0 ID: 0

Read mode : Secure
Utilize accurate stream : Yes
Defeat audio cache : Yes
Make use of C2 pointers : No

Read offset correction : 733
Overread into Lead-In and Lead-Out : Yes
Fill up missing offset samples with silence : Yes
Delete leading and trailing silent blocks : No
Null samples used in CRC calculations : Yes
Used interface : Installed external ASPI interface

Used output format : Monkey's Audio Lossless Encoder v3.99 DLL
Sample format : High Lossless Compression


TOC of the extracted CD

Track | Start | Length | Start sector | End sector
---------------------------------------------------------
1 | 0:00.00 | 4:20.12 | 0 | 19511
2 | 4:20.12 | 6:25.66 | 19512 | 48452
3 | 10:46.03 | 3:56.63 | 48453 | 66215
4 | 14:42.66 | 3:46.66 | 66216 | 83231
5 | 18:29.57 | 4:34.48 | 83232 | 103829
6 | 23:04.30 | 3:34.60 | 103830 | 119939
7 | 26:39.15 | 3:30.48 | 119940 | 135737
8 | 30:09.63 | 3:47.09 | 135738 | 152771
9 | 33:56.72 | 4:01.19 | 152772 | 170865
10 | 37:58.16 | 4:27.04 | 170866 | 190894
11 | 42:25.20 | 2:42.70 | 190895 | 203114
12 | 45:08.15 | 4:01.36 | 203115 | 221225
13 | 49:09.51 | 4:07.33 | 221226 | 239783
14 | 53:17.09 | 5:46.45 | 239784 | 265778
15 | 59:03.54 | 4:00.39 | 265779 | 283817
16 | 63:04.18 | 3:22.21 | 283818 | 298988


Range status and errors

Selected range

Filename H:\AUDIO - II\Audio CD - II\ Jazz Acid - Jazz Ambient - Jazzy - Nu Jazz\ Music For Coctails 2CD (2008)\Music For Coctails CD2 (2008)\Various - Music For Cocktails CD 2.ape

Peak level 96.5 %
Range quality 100.0 %
Test CRC 26B34A5E
Copy CRC 26B34A5E
Copy OK

No errors occurred


AccurateRip summary

Track 1 accurately ripped (confidence 1) [5E3C34A0]
Track 2 accurately ripped (confidence 1) [E835B4CC]
Track 3 cannot be verified as accurate (confidence 1) [4E83BD9A], AccurateRip returned [5083BD9A]
Track 4 accurately ripped (confidence 1) [3171427A]
Track 5 cannot be verified as accurate (confidence 1) [C16A6C0B], AccurateRip returned [236A6C0B]
Track 6 accurately ripped (confidence 1) [A1D308D6]
Track 7 accurately ripped (confidence 1) [3D23CA3F]
Track 8 accurately ripped (confidence 1) [35E1C21C]
Track 9 accurately ripped (confidence 1) [A02DB01C]
Track 10 accurately ripped (confidence 1) [1B5FB9E9]
Track 11 accurately ripped (confidence 1) [C4CA1EA3]
Track 12 accurately ripped (confidence 1) [DDF19AE7]
Track 13 accurately ripped (confidence 1) [07526FBC]
Track 14 accurately ripped (confidence 1) [0912CCA6]
Track 15 accurately ripped (confidence 1) [825ABE1C]
Track 16 accurately ripped (confidence 1) [F3568763]

14 track(s) accurately ripped
2 track(s) could not be verified as accurate

Some tracks could not be verified as accurate

End of status report

Download from FilePost
CD1
Part 1 | Part 2 | Part 3 | Part 4 | Part 5
CD2
Part 1 | Part 2 | Part 3 | Part 4 | Part 5
Download from FileSonic
CD1
Part 1 | Part 2 | Part 3 | Part 4 | Part 5
CD2
Part 1 | Part 2 | Part 3 | Part 4 | Part 5

Covers
Download from FilePost | Download from FileSonic

Welcome to my Blog
ADVERTISING » Very Fast Download!



« ADVERTISING




Posted By: tbmusic Date: 18 Jan 2012 00:29:43
thanks
Posted By: forrest61 Date: 12 Feb 2012 13:58:27
on File Post CD2 file 04 there is BAD GATEWAY
so I can't dl
Posted By: panicman Date: 03 Apr 2012 14:30:01
Thank You! All links on FP are working fine now.
Posted By: rettib99 Date: 28 Jun 2012 00:49:45
CD2 File 02 is "not found". Any chance of reuploading? Thanks!