Loading...

Aes Dana - Pollen (2012)

Posted By : gribovar | Date : 12 Feb 2013 13:05:59 | Comments : 4 |
|



Aes Dana - Pollen (2012)
EAC Rip | FLAC (image+.cue+log) - 542 MB | MP3 CBR 320 kbps (LAME 3.93) - 300 MB | Covers included
Genre: IDM, Downtempo, Ambient | RAR 3% Rec. | Label: Ultimae Records (inre 055)

French composer Vincent Villuis aka Aes Dana follows up on his highly acclaimed 'Perimeters' album, released in 2011 with a vibrant and powerful opus titled 'Pollen' which presents 10 tracks fusing IDM / Downtempo, Deep Tech and Progressive Trance. A cinematic album which offers new perceptions of the work of the composer who weaved symphonic pads into deep bass grooves and haunting themes while bringing out a certain melancholia brushed by stratified rhythms.
Passionate about the concept of pollination and how it transposes with music, sounds, technology and humanity, the artist recorded and gathered moments of his life as he walked through cities, fields, seaside and airports. Back in the studio, he introduced these field recordings in his electronic compositions to yield tracks that are eclectic yet retain a common essence. In this configuration, man and machine are both pollinators and pollenizers. Music is the pollen.

Tracklist:
01. Jetlag Corporation
02. Borderline
03. Conditioned (Album Edit)
04. Tree.Some
05. A Carmine Day
06. 101 Clouds
07. Riven
08. The Meeting Point
09. Horizontal Rain
10. Low Tide Explorations

Total time: 01:16:59

EAC log
Exact Audio Copy V1.0 beta 3 from 29. August 2011

EAC extraction logfile from 23. December 2012, 18:54

Aes Dana / Pollen

Used drive : Optiarc DVD RW AD-7240S Adapter: 4 ID: 0

Read mode : Secure
Utilize accurate stream : Yes
Defeat audio cache : Yes
Make use of C2 pointers : No

Read offset correction : 48
Overread into Lead-In and Lead-Out : No
Fill up missing offset samples with silence : Yes
Delete leading and trailing silent blocks : No
Null samples used in CRC calculations : Yes
Used interface : Native Win32 interface for Win NT & 2000

Used output format : User Defined Encoder
Selected bitrate : 1024 kBit/s
Quality : High
Add ID3 tag : No
Command line compressor : C:\Program Files (x86)\Exact Audio Copy\Flac\flac.exe
Additional command line options : -8 -V -T "ARTIST=%artist%" -T "TITLE=%title%" -T "ALBUM=%albumtitle%" -T "DATE=%year%" -T "TRACKNUMBER=%tracknr%" -T "GENRE=%genre%" -T "COMMENT=%comment%" %source% -o %dest%


TOC of the extracted CD

Track | Start | Length | Start sector | End sector
---------------------------------------------------------
1 | 0:00.00 | 5:43.67 | 0 | 25791
2 | 5:43.67 | 6:06.45 | 25792 | 53286
3 | 11:50.37 | 7:43.53 | 53287 | 88064
4 | 19:34.15 | 7:03.36 | 88065 | 119825
5 | 26:37.51 | 8:46.06 | 119826 | 159281
6 | 35:23.57 | 7:40.22 | 159282 | 193803
7 | 43:04.04 | 7:22.68 | 193804 | 227021
8 | 50:26.72 | 7:03.35 | 227022 | 258781
9 | 57:30.32 | 8:22.58 | 258782 | 296489
10 | 65:53.15 | 11:05.56 | 296490 | 346420


Range status and errors

Selected range

Filename R:\_EAC_Ripped\Aes Dana - Pollen.wav

Peak level 96.5 %
Extraction speed 4.5 X
Range quality 100.0 %
Test CRC 03516699
Copy CRC 03516699
Copy OK

No errors occurred


AccurateRip summary

Track 1 not present in database
Track 2 not present in database
Track 3 not present in database
Track 4 not present in database
Track 5 not present in database
Track 6 not present in database
Track 7 not present in database
Track 8 not present in database
Track 9 not present in database
Track 10 not present in database

None of the tracks are present in the AccurateRip database

End of status report

==== Log checksum DADA18750D031A64CA6FC132C15DF2A62EAC5DF774E5F5B30D453E04CC33CD98 ====

Thanks to EPSmuz

More Ultimae Records' releases from my blog:
Ultimae Records

LOSSLESS:

Filepost.com
________________

MP3 320 kbps:

Filepost.com
ADVERTISING » Very Fast Download!



« ADVERTISING




Posted By: cimx Date: 12 Feb 2013 16:31:18
Cheers mate. :)
Posted By: strange_dream Date: 12 Feb 2013 17:11:39
Thank you..
Posted By: Red Star Date: 13 Feb 2013 01:06:13
Thank you!!
Posted By: petecare Date: 14 Feb 2013 12:30:49
Hi gribovar and thanks you very much for this share