Loading...

Solar Fields - Extended (2005)

Posted By : gribovar | Date : 28 Jul 2013 14:26:20 | Comments : 3 |
|



Solar Fields - Extended (2005)
EAC Rip | FLAC (image+.cue+log) - 430 MB | Covers - 77 MB
Genre: Downtempo, Ambient | RAR 3% Rec. | Label: Ultimae Records (inre 018)

Extended is the atmospheric extension of the album Leaving Home. Released as a limited edition, this album stands as a space music labyrinth, playing with memories and echos of climatic and cinematic sounds. Three pieces were successfully presented in 2004 at the Trabekel exhibition (Sandviken - Sweden), encounter between painter Antonio Sognasoldi and Magnus Birgersson. The concept behind the installation was to create a shift of perceptions, as music evolved through the gallery following the public footsteps. This work was the starting key for the other 4 tracks. An album of stretched rhythms, floating pads and pure tranquillity.

Tracklist:
01. Air Song (8 AM Version)
02. No Answer
03. Station 5
04. Winter Sun
05. Combinations
06. A Place To Think
07. Detection (Far And Extended)

Total time: 01:19:57

EAC log
Exact Audio Copy V0.99 prebeta 5 from 4. May 2009

EAC extraction logfile from 12. October 2010, 22:50

Solar Fields / Extended

Used drive : Optiarc DVD RW AD-7240S Adapter: 0 ID: 2

Read mode : Secure
Utilize accurate stream : Yes
Defeat audio cache : Yes
Make use of C2 pointers : No

Read offset correction : 48
Overread into Lead-In and Lead-Out : No
Fill up missing offset samples with silence : Yes
Delete leading and trailing silent blocks : No
Null samples used in CRC calculations : Yes
Used interface : Installed external ASPI interface

Used output format : User Defined Encoder
Selected bitrate : 1024 kBit/s
Quality : High
Add ID3 tag : No
Command line compressor : C:\Program Files\Exact Audio Copy\FLAC\FLAC.EXE
Additional command line options : -8 -V -T "ARTIST=%a" -T "TITLE=%t" -T "ALBUM=%g" -T "DATE=%y" -T "TRACKNUMBER=%n" -T "GENRE=%m" -T "COMMENT=%e" %s -o %d


TOC of the extracted CD

Track | Start | Length | Start sector | End sector
---------------------------------------------------------
1 | 0:00.00 | 16:39.01 | 0 | 74925
2 | 16:39.01 | 9:34.70 | 74926 | 118045
3 | 26:13.71 | 10:31.66 | 118046 | 165436
4 | 36:45.62 | 8:33.53 | 165437 | 203964
5 | 45:19.40 | 16:01.02 | 203965 | 276041
6 | 61:20.42 | 5:59.15 | 276042 | 302981
7 | 67:19.57 | 12:37.30 | 302982 | 359786


Range status and errors

Selected range

Filename L:\_EAC_Ripped\Solar Fields - Extended.wav

Peak level 91.8 %
Range quality 100.0 %
Test CRC E5463EA3
Copy CRC E5463EA3
Copy OK

No errors occurred


AccurateRip summary

Track 1 accurately ripped (confidence 10) [3EA6EFBD]
Track 2 accurately ripped (confidence 10) [CA510D62]
Track 3 accurately ripped (confidence 10) [8CA19163]
Track 4 accurately ripped (confidence 10) [E63CB61C]
Track 5 accurately ripped (confidence 9) [99BF74FF]
Track 6 accurately ripped (confidence 10) [8F1DE69C]
Track 7 accurately ripped (confidence 8) [59803995]

All tracks accurately ripped

End of status report

Thanks to EPSmuz

More Ultimae Records' releases from my blog:
Ultimae Records

MP3:
Solar Fields - Extended

LOSSLESS:

Filepost.com

Rapidgator.net
_______________

Covers:

Filepost.com

Rapidgator.net
ADVERTISING » Very Fast Download!



« ADVERTISING




Posted By: 13mh13 Date: 28 Jul 2013 17:26:21
Thank you for following up on this request!
Posted By: Koyde Date: 28 Jul 2013 23:14:46
Great up
Thanks a lot
Posted By: gsuser Date: 30 Jul 2013 10:43:11
Many thanks ;)