Loading...

Eric Clapton - The Professor Blues Review Live in Montreux (1997)

Posted By : chicopicho | Date : 12 Nov 2010 18:15:07 | Comments : 2 |
|



Eric Clapton - The Professor Blues Review Live in Montreux (1997)
EAC rip (secure mode) | FLAC(image)+CUE+LOG | Front cover | 330 MB(+5%)
Genre: Rock, Blues | Label: ITM | Original Release Date: 1997

This date was the second on Clapton’s world tour and the first night on this stage as he played with Otis Rush. Any Fan of Clapton will certainly want to check out Live at Montreux 1986. He certainly delivers some brilliant solos and the crowd is excellent.

Tracklist

1. Cross This Town
2. Double Trouble
3. All Your Love
4. I Go Back Home
5. Crossroads
6. White Room
7. Same Old Blues
8. I Can Wait
9. Cocaine

EAC Log
Exact Audio Copy V0.99 prebeta 4 from 23. January 2008

EAC extraction logfile from 12. November 2010, 17:42

Eric Clapton / The Professor Blues Review

Used drive : HL-DT-STDVDRAM GSA-H42N Adapter: 0 ID: 1

Read mode : Secure
Utilize accurate stream : Yes
Defeat audio cache : Yes
Make use of C2 pointers : No

Read offset correction : 667
Overread into Lead-In and Lead-Out : No
Fill up missing offset samples with silence : Yes
Delete leading and trailing silent blocks : No
Null samples used in CRC calculations : Yes
Used interface : Native Win32 interface for Win NT & 2000

Used output format : User Defined Encoder
Selected bitrate : 320 kBit/s
Quality : High
Add ID3 tag : No
Command line compressor : C:\Program Files\Exact Audio Copy\Flac\flac.exe
Additional command line options : -8 -V -T "ARTIST=%a" -T "TITLE=%t" -T "ALBUM=%g" -T "DATE=%y" -T "TRACKNUMBER=%n" -T "GENRE=%m" -T "COMMENT=EAC Flac 1.1.4 -8" %s


TOC of the extracted CD

Track | Start | Length | Start sector | End sector
---------------------------------------------------------
1 | 0:00.00 | 7:47.33 | 0 | 35057
2 | 7:47.33 | 5:12.07 | 35058 | 58464
3 | 12:59.40 | 6:52.05 | 58465 | 89369
4 | 19:51.45 | 5:04.07 | 89370 | 112176
5 | 24:55.52 | 5:13.32 | 112177 | 135683
6 | 30:09.09 | 5:36.00 | 135684 | 160883
7 | 35:45.09 | 13:16.56 | 160884 | 220639
8 | 49:01.65 | 4:56.47 | 220640 | 242886
9 | 53:58.37 | 5:42.18 | 242887 | 268554


Range status and errors

Selected range

Filename D:\My Rips\Eric Clapton - The Professor Blues Review.wav

Peak level 85.9 %
Range quality 100.0 %
Test CRC F5338DBF
Copy CRC F5338DBF
Copy OK

No errors occurred


AccurateRip summary

Track 1 not present in database
Track 2 not present in database
Track 3 not present in database
Track 4 not present in database
Track 5 not present in database
Track 6 not present in database
Track 7 not present in database
Track 8 not present in database
Track 9 not present in database

None of the tracks are present in the AccurateRip database

End of status report



personnel:

Eric Clapton and Otis Rush - Guitar and Vocals
Professor Eddie Lask - Keyboards
Eddie Turner - Drums
Anthony Parker- Guitar
Fred Burns - Bass

HF Linkz


Fileserve Linkz

Filesonic Linkz

the files are interchangeable...

Visit My Blog

ADVERTISING » Very Fast Download!



« ADVERTISING




Posted By: orkal Date: 13 Nov 2010 00:06:58
HF linkz ?
Posted By: Puster Date: 13 Nov 2010 21:46:53
Thank you for that but on HF there are no links/files in the folder (ECl_TPrBlR/) - "Empty Directory" message there! Could you check this for us? Thanks in advance, P.