Loading...

Aashish Khan - Golden String of the Sarode (2005)

Posted By : Jazzmen | Date : 10 Nov 2010 13:04:58 | Comments : 2 |
|



Aashish Khan - Golden String of the Sarode (2005)
World | EAC | FLAC+Cue+Log files - (330 MB) | MP3 320 - (180 MB) | Scans

For this intimate yet scintillating, Grammy-nominated duet, Aashish Khan, son of the legendary Ali Akbar Khan and a brilliant sarode virtuoso, is heard with percussionist, producer, and composer Zakir Hussain, who has not only taken his ancestral tabla drums into the 21st century, but is a noted classicist with an impressive pedigree of his own. His famous father, Ustad Alla Rakha, working with sitar master Ravi Shankar, was largely responsible for bringing Indian classical music to Western ears during the 1960s. Together, the two younger men explore and expand the perimeters of their respective instruments. Invented in the 17th century, the fearsomely demanding sarode (sarod-dhayak-vina in sanskrit) is made of teak wood with a fretless steel fingerboard, resonating goat skin belly, and 25 metal strings variously employed for drone, rhythm, and melody. The term tabla actually refers to a pair of drums; the smaller dayan is played with the right hand while the larger bayan is played with the left. The three raags that make up the recital are, as is typical of this type of music, are associated with different times of day. Bhimpalashri, meant for the afternoon, is gently but not passively melancholy. Lalita Gouri captures the lingering fires of sunset, while Bhairavi is redolent of fragrant night shadows, romantic longing, and the eternal feminine.

Track Listing
-------------
1. Raag Lalita Gouri [Alaap]
2. Raag Bhimpalashree [Gat in Jhaptal]
3. Raag Mishra Bhairavi [Gat in Dadra]

EAC LOG
Exact Audio Copy V0.99 prebeta 4 from 23. January 2008

EAC extraction logfile from 14. March 2009, 17:32

Ustad Aashish Khan & Ustad Zakir Hussain / Golden Strings of the Sarode

Used drive : MOSER BAER DH-22A8S Adapter: 2 ID: 1

Read mode : Secure
Utilize accurate stream : Yes
Defeat audio cache : Yes
Make use of C2 pointers : No

Read offset correction : 6
Overread into Lead-In and Lead-Out : No
Fill up missing offset samples with silence : Yes
Delete leading and trailing silent blocks : No
Null samples used in CRC calculations : Yes
Used interface : Installed external ASPI interface

Used output format : Internal WAV Routines
Sample format : 44.100 Hz; 16 Bit; Stereo


TOC of the extracted CD

Track | Start | Length | Start sector | End sector
---------------------------------------------------------
1 | 0:00.00 | 14:16.49 | 0 | 64248
2 | 14:16.49 | 21:12.61 | 64249 | 159709
3 | 35:29.35 | 21:24.04 | 159710 | 256013


Range status and errors

Selected range

Filename E:\Wildstrings\Ustad Aashish Khan & Ustad Zakir Hussain - Golden Strings of the Sarode\Ustad Aashish Khan & Ustad Zakir Hussain - Golden Strings of the Sarode.wav

Peak level 98.4 %
Range quality 100.0 %
Test CRC 1C5FA885
Copy CRC 1C5FA885
Copy OK

No errors occurred

End of status report

Download: (Links are interchangeable)

Archives have 3% of the information for restoration

FlameUpload - Multiple mirrors ¬
FLAC
http://flameupload.com/files/R4OF99BD/GSTROSR.part1.rar
http://flameupload.com/files/04A9TM4S/GSTROSR.part2.rar
http://flameupload.com/files/1HEECBUT/GSTROSR.part3.rar
MP3
http://flameupload.com/files/PCUPB3XF/GSTROSRMP.part1.rar
http://flameupload.com/files/SBI5T1HJ/GSTROSRMP.part2.rar

Fileserve:
FLAC
http://www.fileserve.com/file/5ekS7yC
http://www.fileserve.com/file/XQJGdrt
http://www.fileserve.com/file/7pzTWpX
MP3
http://www.fileserve.com/file/nm7ZagE
http://www.fileserve.com/file/czjN2Bk


ADVERTISING » Very Fast Download!



« ADVERTISING




Posted By: tbmusic Date: 10 Nov 2010 23:11:13
thanks
Posted By: nowhereman13 Date: 22 Apr 2011 06:27:26
thxxxxxxxxxxxxxxxxxxxxxxxxxx