Loading...

Harem: Rhythm Of Color - Turkish Percussion Group

Posted By : Jazzmen | Date : 10 Oct 2011 12:17:51 | Comments : 1 |
|



Harem: Rhythm Of Color - Turkish Percussion Group
World | EAC | FLAC+Cue+Log files - (510 MB) | MP3 320 - (330 MB) | H.Q.Scans | 2001

An excellent percussion group ! Mystical meditation with a happy and danceable sound.. No words, all instrumental. Powerful drum solos decorated with violins, clarinets and trumpets. This album is traditional with a hint of modern taste. Most beople seem to like this album more then the newer one. If you enjoy post-modern styles such as House or Trance, you would also like Harem II ... I ordered the newest III album and I am looking forward to listening to it..

Track Listings
--------------
[01]. Darbouka Solo I
[02]. Indian
[03]. Darbouka Solo II
[04]. Vasil
[05]. Tabla Solo
[06]. Varda
[07]. Darbouka Solo III
[08]. Siki Siki Baba
[09]. Solo Rhythm Composition
[10]. Zennube
[11]. Darbouka - Hollo Solo
[12]. Armut Agaci

EAC LOG
Exact Audio Copy V1.0 beta 2 from 29. April 2011

EAC extraction logfile from 10. July 2011, 22:44

Harem / Rhythm Colour

Used drive : Optiarc DVD RW AD-5200A Adapter: 0 ID: 0

Read mode : Secure
Utilize accurate stream : Yes
Defeat audio cache : Yes
Make use of C2 pointers : No

Read offset correction : 48
Overread into Lead-In and Lead-Out : No
Fill up missing offset samples with silence : Yes
Delete leading and trailing silent blocks : No
Null samples used in CRC calculations : Yes
Used interface : Native Win32 interface for Win NT & 2000
Gap handling : Appended to previous track

Used output format : User Defined Encoder
Selected bitrate : 128 kBit/s
Quality : High
Add ID3 tag : No
Command line compressor : C:\Program Files (x86)\Exact Audio Copy\Flac\flac.exe
Additional command line options : -8 -V -T "ARTIST=%artist%" -T "TITLE=%title%" -T "ALBUM=%albumtitle%" -T "DATE=%year%" -T "TRACKNUMBER=%tracknr%" -T "GENRE=%genre%" -T "COMMENT=ripped by Andy aka yetiisyou" %source%


TOC of the extracted CD

Track | Start | Length | Start sector | End sector
---------------------------------------------------------
1 | 0:00.00 | 2:48.69 | 0 | 12668
2 | 2:48.69 | 5:28.46 | 12669 | 37314
3 | 8:17.40 | 2:41.29 | 37315 | 49418
4 | 10:58.69 | 5:30.35 | 49419 | 74203
5 | 16:29.29 | 2:32.47 | 74204 | 85650
6 | 19:02.01 | 4:43.24 | 85651 | 106899
7 | 23:45.25 | 3:30.36 | 106900 | 122685
8 | 27:15.61 | 2:40.19 | 122686 | 134704
9 | 29:56.05 | 5:16.19 | 134705 | 158423
10 | 35:12.24 | 2:37.10 | 158424 | 170208
11 | 37:49.34 | 2:33.24 | 170209 | 181707
12 | 40:22.58 | 6:05.38 | 181708 | 209120


Track 1

Filename E:\!Rips\Harem Vol 1-4 [2000 - 2004]\2000 - Rhythm Colour\01 - Darbouka Solo I.wav

Pre-gap length 0:00:02.00

Peak level 98.0 %
Extraction speed 2.2 X
Track quality 100.0 %
Test CRC 2C3CC798
Copy CRC 2C3CC798
Accurately ripped (confidence 2) [7D0F7AF9] (AR v1)
Copy OK

Track 2

Filename E:\!Rips\Harem Vol 1-4 [2000 - 2004]\2000 - Rhythm Colour\02 - Indian.wav

Pre-gap length 0:00:02.00

Peak level 98.0 %
Extraction speed 2.7 X
Track quality 100.0 %
Test CRC 34C16BBC
Copy CRC 34C16BBC
Accurately ripped (confidence 2) [13A56A4A] (AR v1)
Copy OK

Track 3

Filename E:\!Rips\Harem Vol 1-4 [2000 - 2004]\2000 - Rhythm Colour\03 - Darbouka Solo II.wav

Pre-gap length 0:00:02.00

Peak level 98.0 %
Extraction speed 2.7 X
Track quality 100.0 %
Test CRC 44BA0CE1
Copy CRC 44BA0CE1
Accurately ripped (confidence 2) [F5163013] (AR v1)
Copy OK

Track 4

Filename E:\!Rips\Harem Vol 1-4 [2000 - 2004]\2000 - Rhythm Colour\04 - Vasil.wav

Pre-gap length 0:00:02.00

Peak level 98.0 %
Extraction speed 3.2 X
Track quality 100.0 %
Test CRC 4C97D825
Copy CRC 4C97D825
Accurately ripped (confidence 2) [DFA3EC12] (AR v1)
Copy OK

Track 5

Filename E:\!Rips\Harem Vol 1-4 [2000 - 2004]\2000 - Rhythm Colour\05 - Tabla Solo.wav

Pre-gap length 0:00:02.00

Peak level 98.0 %
Extraction speed 3.0 X
Track quality 100.0 %
Test CRC 021F83D0
Copy CRC 021F83D0
Accurately ripped (confidence 2) [5C71A760] (AR v1)
Copy OK

Track 6

Filename E:\!Rips\Harem Vol 1-4 [2000 - 2004]\2000 - Rhythm Colour\06 - Varda.wav

Pre-gap length 0:00:02.00

Peak level 98.0 %
Extraction speed 3.6 X
Track quality 100.0 %
Test CRC 72A166B2
Copy CRC 72A166B2
Accurately ripped (confidence 2) [B57EDB16] (AR v1)
Copy OK

Track 7

Filename E:\!Rips\Harem Vol 1-4 [2000 - 2004]\2000 - Rhythm Colour\07 - Darbouka Solo III.wav

Pre-gap length 0:00:02.00

Peak level 98.0 %
Extraction speed 3.1 X
Track quality 99.9 %
Test CRC C62B1D8A
Copy CRC C62B1D8A
Accurately ripped (confidence 2) [87B2BA30] (AR v1)
Copy OK

Track 8

Filename E:\!Rips\Harem Vol 1-4 [2000 - 2004]\2000 - Rhythm Colour\08 - Siki Siki Baba.wav

Pre-gap length 0:00:02.00

Peak level 98.0 %
Extraction speed 3.5 X
Track quality 100.0 %
Test CRC A3DE2924
Copy CRC A3DE2924
Accurately ripped (confidence 2) [07CA4115] (AR v1)
Copy OK

Track 9

Filename E:\!Rips\Harem Vol 1-4 [2000 - 2004]\2000 - Rhythm Colour\09 - Solo-Rhythm Composition.wav

Pre-gap length 0:00:02.00

Peak level 98.0 %
Extraction speed 4.0 X
Track quality 100.0 %
Test CRC 439D16B9
Copy CRC 439D16B9
Accurately ripped (confidence 2) [C07A3E1A] (AR v1)
Copy OK

Track 10

Filename E:\!Rips\Harem Vol 1-4 [2000 - 2004]\2000 - Rhythm Colour\10 - Zennube.wav

Pre-gap length 0:00:02.00

Peak level 98.0 %
Extraction speed 3.8 X
Track quality 100.0 %
Test CRC FB5CCE74
Copy CRC FB5CCE74
Accurately ripped (confidence 2) [F96C8533] (AR v1)
Copy OK

Track 11

Filename E:\!Rips\Harem Vol 1-4 [2000 - 2004]\2000 - Rhythm Colour\11 - Darbouka-Hollo Solo.wav

Pre-gap length 0:00:02.00

Peak level 98.0 %
Extraction speed 3.8 X
Track quality 100.0 %
Test CRC 1752E3C9
Copy CRC 1752E3C9
Accurately ripped (confidence 2) [D43436D9] (AR v1)
Copy OK

Track 12

Filename E:\!Rips\Harem Vol 1-4 [2000 - 2004]\2000 - Rhythm Colour\12 - Armut Agaci.wav

Pre-gap length 0:00:02.00

Peak level 98.0 %
Extraction speed 4.5 X
Track quality 100.0 %
Test CRC 5BB021F1
Copy CRC 5BB021F1
Accurately ripped (confidence 2) [790F7876] (AR v1)
Copy OK


All tracks accurately ripped

No errors occurred

End of status report

==== Log checksum 643E3D8B5F8FC54A293E30A546611C5F48D5B3984A0DF94899BE3938EBBE8D31 ====

All thanks goes to the original releaser!

Download: (Links are interchangeable)

Archives have 5% of the information for restoration

ADVERTISING » Very Fast Download!



« ADVERTISING




Posted By: shark71 Date: 08 Jan 2012 23:03:09
deadth links,please upload again