Loading...

The Greek Folk Instruments, vol. 10 - Laúto

Posted By : solaz | Date : 18 Aug 2010 17:53:49 | Comments : 1 |
|



The Greek Folk Instruments, vol. 10 - Laúto
EAC Rip | FLAC, IMG+CUE, LOG | 320 MB | OGG VBR 192 Kbps | 90 MB | Complete Scans | RS - MU
F.M. Records FM 687 (1995) | world

It is the chief accompanying instrument included in all forms of Greek folk music ensembles, both on the mainland and the islands. It is often found in small ensembles, such as lyre-lute, violin-lute, clarino-lute. When used for accompaniment, the lute keeps the rhythm, beating the various rhythmic combinations.

Stélios Katsiánis
01 - Sterianí patináda / Mainland processional [3:09]
02 - Anastasiá [3:13]
03 - "Síko, Diamánto" / "Get up, Diamanto" [2:07]
04 - "Lagkádi Kserolágkado" / "Lagádi, xerolágado" (dry gorge) [4:04]
A dance from Roumeli "in threes"
05 - Argeítiko kalamatianó / Kalamatianos dance (Argos) [3:55]
06 - Thessalikí patinada tou gámou / Wedding processional (Thessaly) [2:43]

Xrístos Zótos
07 - Miroloi / Lament [5:05]
08 - Strotó pogonísio / Dance from Pogoni [1:32]
09 - Vathí Mberati / Berati Dance [4:17]
Instrumental piece from Preveza in five beat rhythm
10 - Klámata / Crying [6:10]
11 - Taksími "Kiournti" / Taxim "kiourdi" [5:03]
12 - Liáskos [4:14]
Instrumental piece from Preveza in a four beat rhythm, developing into a tsamikos dance.
13 - Styliáni [4:02]
Slow tsamikos dance (of the plains) from Roumeli.
14 - Xeimariótiko / Dance from Himara, North Epirus [4:29]

Accompaning musicians:
Stelios Katsianis, lute (#7-14)
Vangelis Karipis, defi (#2, 3, 4); toubeleki (#1, 5)
Pericles Papapetropoulos, tambouras (#6)
Andreas Papas, defi (#8, 9, 12, 13, 14); toubeleki (#10)

The pieces are all arrangements of traditional melodies; 1-6 by Stelios Katsianis, 7-14 by Christos Zotos.

LOG

Exact Audio Copy V0.99 prebeta 5 from 4. May 2009

EAC extraction logfile from 28. July 2010, 14:56

Unknown Artist / Unknown Title

Used drive : TSSTcorpCD/DVDW TS-L532M Adapter: 0 ID: 1

Read mode : Secure
Utilize accurate stream : Yes
Defeat audio cache : Yes
Make use of C2 pointers : No

Read offset correction : 116
Overread into Lead-In and Lead-Out : No
Fill up missing offset samples with silence : Yes
Delete leading and trailing silent blocks : No
Null samples used in CRC calculations : No
Used interface : Native Win32 interface for Win NT & 2000
Gap handling : Not detected, thus appended to previous track

Used output format : User Defined Encoder
Selected bitrate : 768 kBit/s
Quality : High
Add ID3 tag : No
Command line compressor : C:\Program Files\Exact Audio Copy\FLAC\FLAC.EXE
Additional command line options : -6 -V -T "ARTIST=%a" -T "TITLE=%t" -T "ALBUM=%g" -T "DATE=%y" -T "TRACKNUMBER=%n" -T "GENRE=%m" -T "COMMENT=%e" %s -o %d


TOC of the extracted CD

Track | Start | Length | Start sector | End sector
---------------------------------------------------------
1 | 0:00.00 | 3:08.51 | 0 | 14150
2 | 3:08.51 | 3:13.22 | 14151 | 28647
3 | 6:21.73 | 2:07.37 | 28648 | 38209
4 | 8:29.35 | 4:04.04 | 38210 | 56513
5 | 12:33.39 | 3:54.57 | 56514 | 74120
6 | 16:28.21 | 2:43.36 | 74121 | 86381
7 | 19:11.57 | 5:04.52 | 86382 | 109233
8 | 24:16.34 | 1:31.46 | 109234 | 116104
9 | 25:48.05 | 4:17.11 | 116105 | 135390
10 | 30:05.16 | 6:10.32 | 135391 | 163172
11 | 36:15.48 | 5:03.16 | 163173 | 185913
12 | 41:18.64 | 4:13.51 | 185914 | 204939
13 | 45:32.40 | 4:01.40 | 204940 | 223054
14 | 49:34.05 | 4:29.23 | 223055 | 243252


Track 1

Filename H:\midan\LAOYTO\01 Track01.wav

Peak level 96.3 %
Track quality 100.0 %
Test CRC 290FCF5C
Copy CRC 290FCF5C
Track not present in AccurateRip database
Copy OK

Track 2

Filename H:\midan\LAOYTO\02 Track02.wav

Peak level 96.3 %
Track quality 100.0 %
Test CRC AD5C45F0
Copy CRC AD5C45F0
Track not present in AccurateRip database
Copy OK

Track 3

Filename H:\midan\LAOYTO\03 Track03.wav

Peak level 79.9 %
Track quality 99.9 %
Test CRC AC6A9339
Copy CRC AC6A9339
Track not present in AccurateRip database
Copy OK

Track 4

Filename H:\midan\LAOYTO\04 Track04.wav

Peak level 95.2 %
Track quality 99.9 %
Test CRC C24E38D6
Copy CRC C24E38D6
Track not present in AccurateRip database
Copy OK

Track 5

Filename H:\midan\LAOYTO\05 Track05.wav

Peak level 96.3 %
Track quality 99.9 %
Test CRC 91AD2B8A
Copy CRC 91AD2B8A
Track not present in AccurateRip database
Copy OK

Track 6

Filename H:\midan\LAOYTO\06 Track06.wav

Peak level 96.3 %
Track quality 100.0 %
Test CRC 43FE2810
Copy CRC 43FE2810
Track not present in AccurateRip database
Copy OK

Track 7

Filename H:\midan\LAOYTO\07 Track07.wav

Peak level 59.3 %
Track quality 100.0 %
Test CRC 8910E63D
Copy CRC 8910E63D
Track not present in AccurateRip database
Copy OK

Track 8

Filename H:\midan\LAOYTO\08 Track08.wav

Peak level 96.3 %
Track quality 99.8 %
Test CRC 87518FBD
Copy CRC 87518FBD
Track not present in AccurateRip database
Copy OK

Track 9

Filename H:\midan\LAOYTO\09 Track09.wav

Peak level 96.3 %
Track quality 100.0 %
Test CRC 60604AF8
Copy CRC 60604AF8
Track not present in AccurateRip database
Copy OK

Track 10

Filename H:\midan\LAOYTO\10 Track10.wav

Peak level 96.3 %
Track quality 100.0 %
Test CRC F4CC2B8B
Copy CRC F4CC2B8B
Track not present in AccurateRip database
Copy OK

Track 11

Filename H:\midan\LAOYTO\11 Track11.wav

Peak level 88.9 %
Track quality 100.0 %
Test CRC 40C787D4
Copy CRC 40C787D4
Track not present in AccurateRip database
Copy OK

Track 12

Filename H:\midan\LAOYTO\12 Track12.wav

Peak level 96.0 %
Track quality 99.9 %
Test CRC 45C064C7
Copy CRC 45C064C7
Track not present in AccurateRip database
Copy OK

Track 13

Filename H:\midan\LAOYTO\13 Track13.wav

Peak level 96.3 %
Track quality 100.0 %
Test CRC D7EFDA6E
Copy CRC D7EFDA6E
Track not present in AccurateRip database
Copy OK

Track 14

Filename H:\midan\LAOYTO\14 Track14.wav

Peak level 90.9 %
Track quality 99.9 %
Test CRC 7B3B8B46
Copy CRC 7B3B8B46
Track not present in AccurateRip database
Copy OK


None of the tracks are present in the AccurateRip database

No errors occurred

End of status report


download link - FLAC scans
download link - ogg,192 scans

The following volume:

vol. 11 - Klaríno:

tracking & performers

01 - Moirolói kai strotó pogoniísio - Miroloi (dirge) and stroto pogonisio [6:39]
02 - Arvanítiko [2:44]
03 - Potamiá [2:06]
04 - Zagorísio [4:29]
05 - Mírka [3:36]
06 - Olympía [2:39]
07 - Bárb' Apostóli - Old Uncle Apostoli [3:18]
08 - Lissávo [2:28]
09 - Kór' Eléni [3:00]
10 - Katsámba [4:54]
11 - O 'Orlingas [2:41]
12 - Papadiá - The Priest's Wife [3:53]
13 - Tzamára [5:11]
14 - Xóra [1:57]
15 - Frásia [3:23]
16 - Taksími Kártsigar [3:46]
17 - Pérgamos [2:29]

Petros Lukas Halkias
Giorgos & Kiriakos Gevgelis
Manos Ahalinotopoulos

rapidshare, megaupload
mp3.160-covers - 68.27 MB


ADVERTISING » Very Fast Download!



« ADVERTISING




Posted By: KrakaToa Date: 22 Aug 2010 02:52:49
Thanks a lot! I love ethinic songs, it connects me to the universe. Peace and progress