Loading...

Manolis Hiotis & Mary Linda - 30 Greatest Hits (1989)

Posted By : Speedyclick | Date : 16 Jun 2011 03:11:26 | Comments : 4 |
|



Manolis Hiotis & Mary Linda - 30 Greatest Hits (1989)
EAC Rip | FLAC (image & cue & log) & mp3 @ 320 kbps | tracks: 30 | Scans | 38:53 | ~ 206 Mb & 99 Mb
Label: MINOS-EMI | 5% recovery record | Greek folk songs, bouzouki

Manolis Hiotis (1921-1970) was an incredible bouzouki virtuoso and a great composer with many "timeless" folk songs that are considered as some of the best ever written for bouzouki and voice. With his artistic (and life) partner, Mary Linda, were a very popular duo, with international allure. Hiotis's bouzouki playing was the fastest of all, full of incredible 1/64ths. Mikis Theodorakis, recognizing his unique artistry, used Hiotis in his first great albums. This CD is a happy medley of the 30 most known hits of the unforgettable couple. Bouzouki paradise from a master. A collectors' item in lossless.

TRACKLIST
01. The flame (I floga)
02. My brunet gypsy girl (Melahrini tsigana mou)
03. Get up my girl (Siko kopela mou)
04. Send me away (Dioxe me)
05. Sunsets (Iliovasilemata)
06. Don't make my mind dizzy (Mi mou zalizis to mialo)
07. Where do you leave me (Efiges ke pou m' afinis)
08. Take my tear (Pare to dakri mou)
09. My past loves (Perasmenes mou agapes)
10. Kill me (Skotose me)
11. You are like a sea (Miazis ke si san thalasa)
12. Heart, stop suffering (Kardia mou papse na ponas)
13. The horse shoes (Ta petalakia)
14. Hello Yiannis (Gia sou Yianni)
15. I have a cool best man (Eho koumparo leventia)
16. Since you want it (Afou to thes)
17. You will marry me (Tha mou balis tin kouloura)
18. People and Kolonaki (Laos ke kolonaki)
19. Kiss me tonight (Apopse fila me)
20. The rich guy (To plousiopedo)
21. My naughty love (Erota mou katergari)
22. The telephon (To tilefono)
23. Thesaloniki
24. Unexpectedly (Apotoma)
25. The passatempo (O pasatempos)
26. I don't care about money (To hrima den to logariazo)
27. Sylvana
28. The curse (I katara)
29. The hate (To misos)
30. My love never fades (I agapi mou den svini)

EAC log
Exact Audio Copy V1.0 beta 1 from 15. November 2010

EAC extraction logfile from 16. June 2011, 2:09

Manolis Xiotis Mary Linta / 30 megales epitixies

Used drive : HL-DT-STDVDRAM GH10N Adapter: 3 ID: 0

Read mode : Secure
Utilize accurate stream : Yes
Defeat audio cache : Yes
Make use of C2 pointers : No

Read offset correction : 667
Overread into Lead-In and Lead-Out : No
Fill up missing offset samples with silence : Yes
Delete leading and trailing silent blocks : No
Null samples used in CRC calculations : Yes
Used interface : Native Win32 interface for Win NT & 2000

Used output format : User Defined Encoder
Selected bitrate : 1024 kBit/s
Quality : High
Add ID3 tag : No
Command line compressor : C:\Program Files\FLAC\flac.exe
Additional command line options : -V -5 -T "artist=%a" -T "title=%t" -T "album=%g" -T "date=%y" -T "tracknumber=%n" -T "genre=%m" -5 %s


TOC of the extracted CD

Track | Start | Length | Start sector | End sector
---------------------------------------------------------
1 | 0:00.00 | 0:44.15 | 0 | 3314
2 | 0:44.15 | 1:19.13 | 3315 | 9252
3 | 2:03.28 | 1:18.47 | 9253 | 15149
4 | 3:22.00 | 1:11.58 | 15150 | 20532
5 | 4:33.58 | 1:03.55 | 20533 | 25312
6 | 5:37.38 | 1:08.55 | 25313 | 30467
7 | 6:46.18 | 1:04.52 | 30468 | 35319
8 | 7:50.70 | 1:13.65 | 35320 | 40859
9 | 9:04.60 | 2:24.18 | 40860 | 51677
10 | 11:29.03 | 1:10.20 | 51678 | 56947
11 | 12:39.23 | 1:26.45 | 56948 | 63442
12 | 14:05.68 | 1:12.12 | 63443 | 68854
13 | 15:18.05 | 0:41.00 | 68855 | 71929
14 | 15:59.05 | 0:40.50 | 71930 | 74979
15 | 16:39.55 | 1:02.05 | 74980 | 79634
16 | 17:41.60 | 1:20.35 | 79635 | 85669
17 | 19:02.20 | 0:59.20 | 85670 | 90114
18 | 20:01.40 | 1:04.53 | 90115 | 94967
19 | 21:06.18 | 1:24.17 | 94968 | 101284
20 | 22:30.35 | 1:16.40 | 101285 | 107024
21 | 23:47.00 | 1:07.33 | 107025 | 112082
22 | 24:54.33 | 1:20.12 | 112083 | 118094
23 | 26:14.45 | 1:57.33 | 118095 | 126902
24 | 28:12.03 | 1:06.62 | 126903 | 131914
25 | 29:18.65 | 1:03.38 | 131915 | 136677
26 | 30:22.28 | 0:45.65 | 136678 | 140117
27 | 31:08.18 | 2:30.52 | 140118 | 151419
28 | 33:38.70 | 1:02.38 | 151420 | 156107
29 | 34:41.33 | 1:27.22 | 156108 | 162654
30 | 36:08.55 | 2:45.00 | 162655 | 175029


Range status and errors

Selected range

Filename U:\EAC Rips\GREEK\Manolis Hiotis & Mary Linda\Manolis Hiotis & Mary Linda - 30 Great Songs\Manolis Xiotis Mary Linta - 30 megales epitixies.wav

Peak level 94.2 %
Extraction speed 0.3 X
Range quality 100.0 %
Test CRC CD1ABC55
Copy CRC CD1ABC55
Copy OK

No errors occurred


AccurateRip summary

Track 1 not present in database
Track 2 not present in database
Track 3 not present in database
Track 4 not present in database
Track 5 not present in database
Track 6 not present in database
Track 7 not present in database
Track 8 not present in database
Track 9 not present in database
Track 10 not present in database
Track 11 not present in database
Track 12 not present in database
Track 13 not present in database
Track 14 not present in database
Track 15 not present in database
Track 16 not present in database
Track 17 not present in database
Track 18 not present in database
Track 19 not present in database
Track 20 not present in database
Track 21 not present in database
Track 22 not present in database
Track 23 not present in database
Track 24 not present in database
Track 25 not present in database
Track 26 not present in database
Track 27 not present in database
Track 28 not present in database
Track 29 not present in database
Track 30 not present in database

None of the tracks are present in the AccurateRip database

End of status report

==== Log checksum 717740A68640DF4C247ED1CBF3D0E7FC99A1290DFC1978852A5654EBF79C5BA4 ====

ADVERTISING » Very Fast Download!



« ADVERTISING




Posted By: bozboze ghandi Date: 17 Jun 2011 00:29:33
Thanks man
Posted By: Nuc Doc Date: 17 Jun 2011 10:35:46
Thank you!
Posted By: vezy Date: 17 Jun 2011 19:23:11
S'efkaristo poli !
Posted By: EktorasClub Date: 22 Jun 2011 20:45:07
Xari se sena simplironoume tin Elliniki diskothiki me aksexasta tragoudia....
Na'sai kala Speedy...