Loading...

Manolis Hiotis & Mary Linda - Unknown American Recordings from 1965-66 (1984)

Posted By : Speedyclick | Date : 10 Aug 2011 21:51:40 | Comments : 2 |
|



Manolis Hiotis & Mary Linda - Unknown American Recordings from 1965-66 (1984)
EAC Rip | FLAC (image & cue & log) & mp3 @ 320 kbps | tracks: 14 | ~ 254 Mb & 103 Mb | 42:30 | Scans
Label: Anodos | 5% recovery record | First release: 1967 | Genre: Greek folk songs, bouzouki

The legendary duet Manolis Hiotis & Mary Linda was very popular in US, where the two artists had a big fan club in the 60's. This rare compilation contains 14 songs (among them 2 wonderful bouzouki solos) recorded during the couple's visits in US from the period 1965-66. These songs are not found in any other album released. Enjoy.

TRACKLIST
01. Don't play with my pain anymore (Min pezis pia me ton pono mou)
02. You are invaluable my love (Esi agapi mou axizis)
03. You didn't even say good bye (Den mou 'pes oute gia sou)
04. You are my God (Ise o Theos mou)
05. Zeimbekiko (Solo bouzouki)
06. I am confused (Eho mplehti)
07. My little daughter is getting married (Pantrevete i koroula mou)
08. Blonde gypsy girl (Xanthia tsigana)
09. You don't love me like before (San prota den m' agapas)
10. Kamilieriko (Solo bouzouki)
11. Mother, I'm writing to you (Sou grafo mana mou)
12. Bring drinks for the guys (Fere sta pedia na pioune)
13. Honeymoon
14. What can I write to you (Ti na sou grapso)

EAC log
Exact Audio Copy V1.0 beta 1 from 15. November 2010

EAC extraction logfile from 10. August 2011, 17:59

Mary Linda & Manolis Hiotis / Agnostes Ihografiseis 65-66

Used drive : HL-DT-STDVDRAM GH10N Adapter: 3 ID: 0

Read mode : Secure
Utilize accurate stream : Yes
Defeat audio cache : Yes
Make use of C2 pointers : No

Read offset correction : 667
Overread into Lead-In and Lead-Out : No
Fill up missing offset samples with silence : Yes
Delete leading and trailing silent blocks : No
Null samples used in CRC calculations : Yes
Used interface : Native Win32 interface for Win NT & 2000

Used output format : User Defined Encoder
Selected bitrate : 1024 kBit/s
Quality : High
Add ID3 tag : No
Command line compressor : C:\Program Files\FLAC\flac.exe
Additional command line options : -V -5 -T "artist=%a" -T "title=%t" -T "album=%g" -T "date=%y" -T "tracknumber=%n" -T "genre=%m" -5 %s


TOC of the extracted CD

Track | Start | Length | Start sector | End sector
---------------------------------------------------------
1 | 0:00.00 | 3:52.50 | 0 | 17449
2 | 3:52.50 | 3:59.45 | 17450 | 35419
3 | 7:52.20 | 3:23.17 | 35420 | 50661
4 | 11:15.37 | 3:28.40 | 50662 | 66301
5 | 14:44.02 | 2:18.30 | 66302 | 76681
6 | 17:02.32 | 2:50.10 | 76682 | 89441
7 | 19:52.42 | 2:11.70 | 89442 | 99336
8 | 22:04.37 | 4:16.28 | 99337 | 118564
9 | 26:20.65 | 3:23.02 | 118565 | 133791
10 | 29:43.67 | 2:30.48 | 133792 | 145089
11 | 32:14.40 | 2:08.25 | 145090 | 154714
12 | 34:22.65 | 2:40.57 | 154715 | 166771
13 | 37:03.47 | 3:09.45 | 166772 | 180991
14 | 40:13.17 | 2:17.48 | 180992 | 191314


Range status and errors

Selected range

Filename U:\EAC Rips\GREEK\Manolis Hiotis & Mary Linda\Hiotis & Linda - Agnostes Amerikanikes Ihografiseis\Mary Linda & Manolis Hiotis - Agnostes Ihografiseis 65-66.wav

Peak level 97.7 %
Extraction speed 0.2 X
Range quality 100.0 %
Test CRC F3C882BB
Copy CRC F3C882BB
Copy OK

No errors occurred


AccurateRip summary

Track 1 not present in database
Track 2 not present in database
Track 3 not present in database
Track 4 not present in database
Track 5 not present in database
Track 6 not present in database
Track 7 not present in database
Track 8 not present in database
Track 9 not present in database
Track 10 not present in database
Track 11 not present in database
Track 12 not present in database
Track 13 not present in database
Track 14 not present in database

None of the tracks are present in the AccurateRip database

End of status report

==== Log checksum 990A8B75CA0FCFBB68B40CBE79B593629B19F5ADB8CD68D531426007CD58A051 ====

ADVERTISING » Very Fast Download!



« ADVERTISING




Posted By: musician3 Date: 11 Aug 2011 07:34:33
Great Thank You
Posted By: ChiosFat Date: 11 Aug 2011 13:01:32
Ευχαριστώ πάρα πολύ.