Loading...

The Jazz Workshop Series, Vol. 5 - The Chick Corea Classics - 1990 - by Bill Dobbins

Posted By : izchaboi | Date : 09 Feb 2010 06:20:06 | Comments : 8 |
|



The Jazz Workshop Series, Vol. 5 - The Chick Corea Classics - 1990 - by Bill Dobbins
FreeJazz / Sheetmusic / Playalong | EAC | CUE + LOG | FLAC Tracks = 412MB or 320kbps CBR MP3 = 130MB
300dpi Scans + LQ PDF Sheet | 1 CD ~ 54 MIN | 200MB RARs | RS.COM | 3% Rec. | Label: ADVANCE MUSIC | 14505CD

Each volume of this unique jazz improvisation method includes: State of the art recordings (multi-track digital), recorded in the excellent Bauer Studios, where many of the productions for the record label ECM have been done, and in the Skyline Studios in New York City. Each set contains six complete performances, including opening and closing theme statements, improvised solos and six play-along tracks which feature the rhythm section without soloist. Many performances use the original arrangements from classic jazz recordings (So What, Equinox, A Night In Tunisia, ’Round Midnight, Con Alma, Webb City, Joshua etc.).
Bill Dobbins - piano, Ron McClure - bass, Billy Hart - drums, Randy Brecker - trumpet and flügelhorn, Joe Lovano - tenor saxophone



Because the complete performances were approached as in a professional recording session the play-along versions sound fresh and spontaneous, with much interaction between the rhythm section instruments and the soloists. Piano and bass are clearly separated. Book with helpful commentary and analysis of each recorded performance in English, français and deutsch.

Transcribed solos: Each book contains at least one complete solo transcription, many excerpts from other solos (piano and bass solos as well as horn and guitar solos are included) plus appropriate chord/scale information, including modes of the major, harmonic minor, melodic minor and symmetrical scales.

Individual instrumental parts in C, B flat, E flat and bass clef: The detachable instrumental parts are extremely practical for both classroom and professional use.
Completely notated piano and bass parts: Volume 1, 2, 5, 6, 7 and 8 contain detachable piano (or guitar) and bass parts for all six compositions, volume 3 on 3 tunes (A Night In Tunisia, ’Round Midnight and Embraceable You).

Transcribed excerpts from piano and bass accompaniments: Excerpts from piano and bass accompaniments have been selected in order to illustrate the most important techniques for developing accompaniments on these instruments. This includes piano chord voicings, harmonic substitution and embellishment, developing bass lines, interaction with other instruments, etc.


Info:


Bill Dobbins

Advance Music

Sheetmusicplus


Tracklist:


EAC LOG
Exact Audio Copy V0.99 prebeta 5 from 4. May 2009

EAC extraction logfile from 7. February 2010, 1:23

The Jazz Workshop Series / The Chick Corea Classics

Used drive : TSSTcorpCDDVDW TS-L632H Adapter: 0 ID: 0

Read mode : Secure
Utilize accurate stream : Yes
Defeat audio cache : Yes
Make use of C2 pointers : No

Read offset correction : 6
Overread into Lead-In and Lead-Out : No
Fill up missing offset samples with silence : Yes
Delete leading and trailing silent blocks : No
Null samples used in CRC calculations : Yes
Used interface : Native Win32 interface for Win NT & 2000
Gap handling : Appended to previous track

Used output format : User Defined Encoder
Selected bitrate : 768 kBit/s
Quality : High
Add ID3 tag : No
Command line compressor : C:\Program Files\Exact Audio Copy\FLAC\FLAC.EXE
Additional command line options : -6 -V -T "ARTIST=%a" -T "TITLE=%t" -T "ALBUM=%g" -T "DATE=%y" -T "TRACKNUMBER=%n" -T "GENRE=%m" -T "COMMENT=%e" %s -o %d


TOC of the extracted CD

Track | Start | Length | Start sector | End sector
---------------------------------------------------------
1 | 0:00.00 | 6:38.72 | 0 | 29921
2 | 6:38.72 | 4:57.03 | 29922 | 52199
3 | 11:36.00 | 6:14.00 | 52200 | 80249
4 | 17:50.00 | 6:37.00 | 80250 | 110024
5 | 24:27.00 | 5:15.00 | 110025 | 133649
6 | 29:42.00 | 5:47.00 | 133650 | 159674
7 | 35:29.00 | 0:40.00 | 159675 | 162674
8 | 36:09.00 | 6:39.00 | 162675 | 192599
9 | 42:48.00 | 4:58.00 | 192600 | 214949
10 | 47:46.00 | 5:22.00 | 214950 | 239099
11 | 53:08.00 | 5:45.00 | 239100 | 264974
12 | 58:53.00 | 5:17.00 | 264975 | 288749
13 | 64:10.00 | 5:48.00 | 288750 | 314849


Track 1

Filename D:\EACRiP's\The Jazz Workshop Series - The Chick Corea Classics - 1990 - 01 - Spain.wav

Pre-gap length 0:00:02.00

Peak level 70.4 %
Track quality 100.0 %
Test CRC 025D677A
Copy CRC 025D677A
Track not present in AccurateRip database
Copy OK

Track 2

Filename D:\EACRiP's\The Jazz Workshop Series - The Chick Corea Classics - 1990 - 02 - Friends.wav

Pre-gap length 0:00:02.73

Peak level 64.3 %
Track quality 100.0 %
Test CRC C97BD108
Copy CRC C97BD108
Track not present in AccurateRip database
Copy OK

Track 3

Filename D:\EACRiP's\The Jazz Workshop Series - The Chick Corea Classics - 1990 - 03 - Litha.wav

Pre-gap length 0:00:03.01

Peak level 74.2 %
Track quality 100.0 %
Test CRC 87E9E780
Copy CRC 87E9E780
Track not present in AccurateRip database
Copy OK

Track 4

Filename D:\EACRiP's\The Jazz Workshop Series - The Chick Corea Classics - 1990 - 04 - The Loop.wav

Pre-gap length 0:00:03.01

Peak level 71.8 %
Track quality 100.0 %
Test CRC 2C5595D9
Copy CRC 2C5595D9
Track not present in AccurateRip database
Copy OK

Track 5

Filename D:\EACRiP's\The Jazz Workshop Series - The Chick Corea Classics - 1990 - 05 - Straight Up and Down.wav

Pre-gap length 0:00:03.01

Peak level 70.1 %
Track quality 100.0 %
Test CRC B0453CB6
Copy CRC B0453CB6
Track not present in AccurateRip database
Copy OK

Track 6

Filename D:\EACRiP's\The Jazz Workshop Series - The Chick Corea Classics - 1990 - 06 - La Fiesta.wav

Pre-gap length 0:00:03.01

Peak level 76.2 %
Track quality 99.9 %
Test CRC 59091E79
Copy CRC 59091E79
Track not present in AccurateRip database
Copy OK

Track 7

Filename D:\EACRiP's\The Jazz Workshop Series - The Chick Corea Classics - 1990 - 07 - Tuning Note.wav

Pre-gap length 0:00:04.01

Peak level 11.3 %
Track quality 100.0 %
Test CRC C40A5001
Copy CRC C40A5001
Track not present in AccurateRip database
Copy OK

Track 8

Filename D:\EACRiP's\The Jazz Workshop Series - The Chick Corea Classics - 1990 - 08 - Spain (play along).wav

Pre-gap length 0:00:04.01

Peak level 74.8 %
Track quality 100.0 %
Test CRC 1DD55AB6
Copy CRC 1DD55AB6
Track not present in AccurateRip database
Copy OK

Track 9

Filename D:\EACRiP's\The Jazz Workshop Series - The Chick Corea Classics - 1990 - 09 - Friends (play along).wav

Pre-gap length 0:00:03.01

Peak level 64.9 %
Track quality 100.0 %
Test CRC D5871D09
Copy CRC D5871D09
Track not present in AccurateRip database
Copy OK

Track 10

Filename D:\EACRiP's\The Jazz Workshop Series - The Chick Corea Classics - 1990 - 10 - Litha (play along).wav

Pre-gap length 0:00:03.01

Peak level 74.8 %
Track quality 100.0 %
Test CRC 659E1A9C
Copy CRC 659E1A9C
Track not present in AccurateRip database
Copy OK

Track 11

Filename D:\EACRiP's\The Jazz Workshop Series - The Chick Corea Classics - 1990 - 11 - The Loop (play along).wav

Pre-gap length 0:00:03.01

Peak level 68.4 %
Track quality 99.9 %
Test CRC 43FD5848
Copy CRC 43FD5848
Track not present in AccurateRip database
Copy OK

Track 12

Filename D:\EACRiP's\The Jazz Workshop Series - The Chick Corea Classics - 1990 - 12 - Straigh Up and Down (play along).wav

Pre-gap length 0:00:02.66

Peak level 73.1 %
Track quality 99.9 %
Test CRC 916D851C
Copy CRC 916D851C
Track not present in AccurateRip database
Copy OK

Track 13

Filename D:\EACRiP's\The Jazz Workshop Series - The Chick Corea Classics - 1990 - 13 - La Fiesta (play along).wav

Pre-gap length 0:00:03.01

Suspicious position 0:05:31
Suspicious position 0:05:38 - 0:05:39

Peak level 73.1 %
Track quality 98.9 %
Test CRC 4843940C
Copy CRC C176F1F4
Track not present in AccurateRip database
Copy finished


None of the tracks are present in the AccurateRip database

There were errors

End of status report



The Jazz Workshop Series, Vol. 5 - The Chick Corea Classics - 1990
_________________________________________



FLAC {412MB}

Part 1
Part 2

or

320kbps CBR {130MB}

MP3


300DPI .PNG {25MB}

Scans

____________________


izchaboi @ AvaxHome

ADVERTISING » Very Fast Download!



« ADVERTISING




Posted By: paulree Date: 09 Feb 2010 06:32:20
Thanks a lot, really useful
Posted By: brigg Date: 09 Feb 2010 12:31:44
I'm no musician, so won't be playing along -- but I welcome the chance to hear some of Chick's music with trumpet, an instrument he sadly uses very rarely on his own recordings.
Posted By: Blue61 Date: 09 Feb 2010 19:55:28
Thank you very much from Spain.
Muchas gracias !!!
Posted By: Blue61 Date: 09 Feb 2010 20:04:12
Thank you very much from Spain.
Muchas gracias !!!
Posted By: FreddieCouples Date: 10 Feb 2010 01:41:57
Excellent post, izchaboi! Are there moore of these Advanced Music publications around?

Thanks!
Posted By: izchaboi Date: 10 Feb 2010 13:45:13
Try to up "classic standards" and "blues" in the next time.
Posted By: shyam_music Date: 19 Feb 2010 09:20:50
Thank u soooo much :D
Posted By: fried10 Date: 07 May 2012 10:35:33
thank you very much