Loading...

Camera Rare Groove - Concrete Music Jungle Vol. 3 - Funk Compilation

Posted By : al-bundy | Date : 02 Apr 2010 04:59:59 | Comments : 0 |
|


camera-concrete-3

Camera Rare Groove - Concrete Music Jungle Vol. 3 - Funk Compilation - Bootleg
EAC Rip | FLAC, IMG+CUE, LOG | 421 MB | Scans
Funk | Label: Only Promotion | 1995 | RS.com


Tracklist:
01 Mystic Moods - You´re place ou mine
02 S.M.B. - Macho city
03 Max Berlin - She and I
04 Will Powers - Adventures in Success
05 Peyote - Alcatraz
06 Fela Kuti - Lefa Lefa Rmx
07 Magic Mushroom Band - Magic Eye
08 Black Blood - Wela Wela
09 Blissed - Don´t make me love you

EAC LOG
Exact Audio Copy V0.99 prebeta 5 from 4. May 2009

EAC Auslese-Logdatei vom 1. April 2010, 21:15

Unbekannter Künstler / Unbekannter Titel

Benutztes Laufwerk : HL-DT-STDVDRAM GSA-4082B Adapter: 1 ID: 1

Lesemodus : Sicher
Benutze Accurate Stream : Ja
Audio Puffer abgeschaltet : Nein
Benutze C2 Fehlerinformationen : Nein

Kombinierte Lese/Schreiboffset Korrektur : 0
Überlesen in das Lead-In und Lead-Out : Ja
Fülle fehlende Offsetsample mit Stille auf : Ja
Lösche führende und nachfolgende stille Blöcke : Nein
Null Samples gehen in CRC Berechnungen ein : Nein
Benutzte Schnittstelle : Installierte externe ASPI Schnittstelle

Benutztes Ausgabeformat : Interne WAV Routinen
Sampleformat : 44.100 Hz; 16 Bit; Stereo


TOC der ausgelesenen CD

Track | Start | Länge | Startsektor | Endsektor
-------------------------------------------------------
1 | 0:00.00 | 3:47.35 | 0 | 17059
2 | 3:47.35 | 9:17.20 | 17060 | 58854
3 | 13:04.55 | 7:43.00 | 58855 | 93579
4 | 20:47.55 | 7:58.00 | 93580 | 129429
5 | 28:45.55 | 9:08.30 | 129430 | 170559
6 | 37:54.10 | 4:25.25 | 170560 | 190459
7 | 42:19.35 | 8:00.05 | 190460 | 226464
8 | 50:19.40 | 4:59.65 | 226465 | 248954
9 | 55:19.30 | 8:52.70 | 248955 | 288924


Bereichsstatus und Fehler

Gewählter Bereich

Dateiname E:\_MUSIK-UPLOAD\concrete-music-jungle-3\Unbekannter Künstler - Unbekannter Titel.wav

Verdächtige Position 1:04:12

Spitzenpegel 100.0 %
Bereichsqualität 99.9 %
Kopie CRC 43A842C0
Kopie beendet

Es sind Fehler aufgetreten

Ende des Statusreports




No password
No Mirrors Please
Thank You

ADVERTISING » Very Fast Download!



« ADVERTISING




No comments for the news