Loading...

La Sonora Matancera - Cubana (con Vicentico Valdes y Celio Gonzalez)

Posted By : tatumgr | Date : 23 Sep 2009 17:54:48 | Comments : 2 |
|



La Sonora Matancera - Cubana (con Vicentico Valdes y Celio Gonzalez)
(Saludos Amigos CD 62033, 1993)
Latin (Cuban) | EAC | FLAC, CUE, LOG | art | 250 Mb

La Sonora Matancera (according to wikipedia)
... is a long-time band. Was led by guitarist and vocalist Rogelio Martinez, La Sonora Matancera has been called, by the Guinness Book of World Records, "the group with the longest duration."
Formed by Valentin Cane, bassist Pablo "Babu" Vasquez, vocalist Eugene Perez, timbales player Manuel "Jimagua" Sanchez, trumpet player Ismael Goberna, and guitarists Domingo Medina, Jose Manuel Valera, Julio Gobin, and Juan Bautista Llopis, the band has gone through many personnel changes in more than seven decades. Damaso Perez Prado was one of the group's pianists and arrangers in its early days. Vocalists in the group have included Daniel Santos, Bienvenido Granda, Nelson Pinedo, Alberto Beltran, Bobby Capo, Carlos Argentino, Celio Gonzalez, Myrta Silva, and its greatest alumna, Celia Cruz.
The Sonora Matancera is best known for its harmonic use of four trumpets, a trademark sound that has led musical purists to reject attempts from any musical group with the word "sonora" in its name to use it, should the group not feature an all-trumpet brass section. Groups such as the Puerto Rico-based Sonora Poncena follow the rule. Bongo and bata drums as well as accordion and hammond organ featured prominently among the instruments used.
The Sonora is also peculiar for its backup singers, notably Manuel Diaz Alonso, "Caito", whose nasal delivery was much imitated by many Latino orchestras, most notably for those directed by Venezuelan-born bandleader and singer Oscar D'Leon.
Original director, Valentin Cane, led the band until poor health forced him to retire at the end of the 1930s. Initially known as Septeto Soprano, the group adapted its name to La Sonora Matancera in 1932. Leaving Cuba, at the advent of the revolution of the 1950s and 1960s, the group settled in New York City, where they continued to share their love of salsa with enthusiastic audiences.


Tracklist:

01. El Vaiven Arrullador
02. Lo Anoro
03. Con Un Poco De Fe
04. Malvado Proceder
05. Y No Me Enganes Mas
06. Sin Pensar En Ti
07. Los Aretes De La Luna
08. Tu Mi Rosa Azul
09. Solo Por Rencor
10. Quemame Los Ojos
11. Si Tuviera Tu Amor
12. Por Que Te Quiero
13. Lo Que Estoy Viviendo
14. Has Vuleto A Mi
15. Me Interessa Tu Opinion
16. Lo Estoy Notando
17. No Te Miento
18. Humo

tracks 1, 2, 3, 7, 8, 9, 13, 14, 15 con Vicentico Valdes
tracks 4, 5, 6, 10, 11, 12, 16, 17, 18 con Celio Gonzalez

Unfortunately, there is no more info about these recordings on the artwork.
However, these track sound like 50's or 60's recordings.


EAC log
Exact Audio Copy V0.99 prebeta 4 from 23. January 2008

EAC extraction logfile from 11. September 2009, 2:13

La Sonora Matancera / Cubana

Used drive : PLEXTOR DVD-ROM PX-116A2 Adapter: 0 ID: 1

Read mode : Secure
Utilize accurate stream : Yes
Defeat audio cache : Yes
Make use of C2 pointers : No

Read offset correction : 102
Overread into Lead-In and Lead-Out : No
Fill up missing offset samples with silence : Yes
Delete leading and trailing silent blocks : No
Null samples used in CRC calculations : Yes
Used interface : Native Win32 interface for Win NT & 2000
Gap handling : Appended to previous track

Used output format : User Defined Encoder
Selected bitrate : 128 kBit/s
Quality : High
Add ID3 tag : No
Command line compressor : C:\Program Files\FLAC\flac.exe
Additional command line options : -8 -V -T "ARTIST=%a" -T "TITLE=%t" -T "ALBUM=%g" -T "DATE=%y" -T "TRACKNUMBER=%n" -T "GENRE=%m" -T "COMMENT=EAC FLAC -8" %s


TOC of the extracted CD

Track | Start | Length | Start sector | End sector
---------------------------------------------------------
1 | 0:00.33 | 2:22.15 | 33 | 10697
2 | 2:22.48 | 2:48.55 | 10698 | 23352
3 | 5:11.28 | 2:41.12 | 23353 | 35439
4 | 7:52.40 | 2:25.35 | 35440 | 46349
5 | 10:18.00 | 2:48.43 | 46350 | 58992
6 | 13:06.43 | 2:54.52 | 58993 | 72094
7 | 16:01.20 | 2:24.53 | 72095 | 82947
8 | 18:25.73 | 2:48.45 | 82948 | 95592
9 | 21:14.43 | 3:01.02 | 95593 | 109169
10 | 24:15.45 | 2:40.70 | 109170 | 121239
11 | 26:56.40 | 2:36.60 | 121240 | 132999
12 | 29:33.25 | 2:57.63 | 133000 | 146337
13 | 32:31.13 | 2:36.00 | 146338 | 158037
14 | 35:07.13 | 2:49.25 | 158038 | 170737
15 | 37:56.38 | 3:01.25 | 170738 | 184337
16 | 40:57.63 | 3:03.72 | 184338 | 198134
17 | 44:01.60 | 2:32.10 | 198135 | 209544
18 | 46:33.70 | 2:59.63 | 209545 | 223032


Track 1

Filename D:\tests\La Sonora Matancera - Cubana (1993) [FLAC] {WMM}\01 - El Vaiven Arrullador.wav

Pre-gap length 0:00:02.44

Peak level 60.3 %
Track quality 100.0 %
Test CRC 7791CCAC
Copy CRC 7791CCAC
Track not present in AccurateRip database
Copy OK

Track 2

Filename D:\tests\La Sonora Matancera - Cubana (1993) [FLAC] {WMM}\02 - Lo Anoro.wav

Peak level 57.2 %
Track quality 100.0 %
Test CRC 31EDC450
Copy CRC 31EDC450
Track not present in AccurateRip database
Copy OK

Track 3

Filename D:\tests\La Sonora Matancera - Cubana (1993) [FLAC] {WMM}\03 - Con Un Poco De Fe.wav

Peak level 68.9 %
Track quality 100.0 %
Test CRC 9E43D193
Copy CRC 9E43D193
Track not present in AccurateRip database
Copy OK

Track 4

Filename D:\tests\La Sonora Matancera - Cubana (1993) [FLAC] {WMM}\04 - Malvado Proceder.wav

Peak level 77.0 %
Track quality 99.9 %
Test CRC 7F917D21
Copy CRC 7F917D21
Track not present in AccurateRip database
Copy OK

Track 5

Filename D:\tests\La Sonora Matancera - Cubana (1993) [FLAC] {WMM}\05 - Y No Me Enganes Mas.wav

Peak level 62.6 %
Track quality 100.0 %
Test CRC EEB3100B
Copy CRC EEB3100B
Track not present in AccurateRip database
Copy OK

Track 6

Filename D:\tests\La Sonora Matancera - Cubana (1993) [FLAC] {WMM}\06 - Sin Pensar En Ti.wav

Peak level 69.1 %
Track quality 99.9 %
Test CRC FDCFB1C1
Copy CRC FDCFB1C1
Track not present in AccurateRip database
Copy OK

Track 7

Filename D:\tests\La Sonora Matancera - Cubana (1993) [FLAC] {WMM}\07 - Los Aretes De La Luna.wav

Peak level 59.1 %
Track quality 100.0 %
Test CRC B262264D
Copy CRC B262264D
Track not present in AccurateRip database
Copy OK

Track 8

Filename D:\tests\La Sonora Matancera - Cubana (1993) [FLAC] {WMM}\08 - Tu Mi Rosa Azul.wav

Peak level 54.8 %
Track quality 100.0 %
Test CRC C2A9963C
Copy CRC C2A9963C
Track not present in AccurateRip database
Copy OK

Track 9

Filename D:\tests\La Sonora Matancera - Cubana (1993) [FLAC] {WMM}\09 - Solo Por Rencor.wav

Peak level 59.5 %
Track quality 100.0 %
Test CRC 03B88937
Copy CRC 03B88937
Track not present in AccurateRip database
Copy OK

Track 10

Filename D:\tests\La Sonora Matancera - Cubana (1993) [FLAC] {WMM}\10 - Quemame Los Ojos.wav

Peak level 76.1 %
Track quality 100.0 %
Test CRC E624BF5B
Copy CRC E624BF5B
Track not present in AccurateRip database
Copy OK

Track 11

Filename D:\tests\La Sonora Matancera - Cubana (1993) [FLAC] {WMM}\11 - Si Tuviera Tu Amor.wav

Peak level 76.3 %
Track quality 100.0 %
Test CRC 99396434
Copy CRC 99396434
Track not present in AccurateRip database
Copy OK

Track 12

Filename D:\tests\La Sonora Matancera - Cubana (1993) [FLAC] {WMM}\12 - Por Que Te Quiero.wav

Peak level 73.7 %
Track quality 100.0 %
Test CRC FD360882
Copy CRC FD360882
Track not present in AccurateRip database
Copy OK

Track 13

Filename D:\tests\La Sonora Matancera - Cubana (1993) [FLAC] {WMM}\13 - Lo Que Estoy Viviendo.wav

Peak level 63.6 %
Track quality 100.0 %
Test CRC 38EBE15F
Copy CRC 38EBE15F
Track not present in AccurateRip database
Copy OK

Track 14

Filename D:\tests\La Sonora Matancera - Cubana (1993) [FLAC] {WMM}\14 - Has Vuleto A Mi.wav

Peak level 59.6 %
Track quality 99.9 %
Test CRC EC4FD5CC
Copy CRC EC4FD5CC
Track not present in AccurateRip database
Copy OK

Track 15

Filename D:\tests\La Sonora Matancera - Cubana (1993) [FLAC] {WMM}\15 - Me Interessa Tu Opinion.wav

Peak level 61.6 %
Track quality 100.0 %
Test CRC 58D442A6
Copy CRC 58D442A6
Track not present in AccurateRip database
Copy OK

Track 16

Filename D:\tests\La Sonora Matancera - Cubana (1993) [FLAC] {WMM}\16 - Lo Estoy Notando.wav

Peak level 68.1 %
Track quality 99.9 %
Test CRC 483D6081
Copy CRC 483D6081
Track not present in AccurateRip database
Copy OK

Track 17

Filename D:\tests\La Sonora Matancera - Cubana (1993) [FLAC] {WMM}\17 - No Te Miento.wav

Peak level 62.1 %
Track quality 100.0 %
Test CRC 55471B5B
Copy CRC 55471B5B
Track not present in AccurateRip database
Copy OK

Track 18

Filename D:\tests\La Sonora Matancera - Cubana (1993) [FLAC] {WMM}\18 - Humo.wav

Peak level 68.2 %
Track quality 100.0 %
Test CRC B11A90A9
Copy CRC B11A90A9
Track not present in AccurateRip database
Copy OK


None of the tracks are present in the AccurateRip database

No errors occurred

End of status report





ADVERTISING » Very Fast Download!



« ADVERTISING




Posted By: Kikin Date: 12 Apr 2010 05:58:43
So sad part1 is not available... :(

Could you please re-up?
Posted By: clandestin Date: 15 Nov 2011 00:40:15
Los links de este extraordinario CD están rotos, podrian subirlos de nuevo y si es en mp3 de 320 Kbps mucho mejor.
Gracias