Loading...

Tom Waits – Every Time I Hear This Melody... - Live In Hamburg (1977)

Posted By : janwal46 | Date : 28 Nov 2009 12:29:09 | Comments : 7 |
|




Tom Waits – Every Time I Hear This Melody... - Live In Hamburg (1977)
N/A | 1977 | Rock Jazz Blues | EAC RIP | FLAC+CUE+LOG+HQ-Covers (400Dpi) | 415Mb+8Mb

Though this rare album is an unofficial live recording, and released by a "no name" company, it's a great performance that has been very well recorded and having a great sound. Absolutely a must have for the Tom Waits addicts !!!

Personnel:

Tom Waits - Vocals & Piano
Frank Vicari - Tenor Saxophone
Dr. Fitzgerald Jenkins - Bass
Chip White – Drums

Tracklist:

01. Spare Parts
02. Invitation To The Blues
03. Depot, Depot
04. The Piano Has Been Drinking
05. Pasties & A G-string
06. Step Right Up
07. Semi Suite
08. Fumblin With The Blues
09. Midnight Lullaby
10. Emotional Weather Report
11. I Can´t Wait To Get Off Work
12. New Cort Of Pain
13. Nobody But You
14. Diamonds On My Windshield
15. Everytime I Hear This Melody
16. The One That Got Away

Recorded Live in Hamburg, Germany, 1977

Sound Quality: 9

EAC LOG
Exact Audio Copy V0.99 prebeta 5 from 4. May 2009

EAC extraction logfile from 27. November 2009, 22:51

Tom Waits / Every Time I Hear This Melody... - Live In Hamburg 1977

Used drive : _NEC DVD_RW ND-3520A Adapter: 1 ID: 1

Read mode : Secure
Utilize accurate stream : Yes
Defeat audio cache : Yes
Make use of C2 pointers : No

Read offset correction : 48
Overread into Lead-In and Lead-Out : No
Fill up missing offset samples with silence : Yes
Delete leading and trailing silent blocks : No
Null samples used in CRC calculations : No
Used interface : Native Win32 interface for Win NT & 2000

Used output format : Internal WAV Routines
Sample format : 44.100 Hz; 16 Bit; Stereo


TOC of the extracted CD

Track | Start | Length | Start sector | End sector
---------------------------------------------------------
1 | 0:00.33 | 5:20.50 | 33 | 24082
2 | 5:21.08 | 6:44.25 | 24083 | 54407
3 | 12:05.33 | 3:20.00 | 54408 | 69407
4 | 15:25.33 | 3:25.00 | 69408 | 84782
5 | 18:50.33 | 4:42.50 | 84783 | 105982
6 | 23:33.08 | 4:04.50 | 105983 | 124332
7 | 27:37.58 | 3:42.00 | 124333 | 140982
8 | 31:19.58 | 2:38.50 | 140983 | 152882
9 | 33:58.33 | 3:40.42 | 152883 | 169424
10 | 37:39.00 | 3:26.05 | 169425 | 184879
11 | 41:05.05 | 6:52.35 | 184880 | 215814
12 | 47:57.40 | 2:22.48 | 215815 | 226512
13 | 50:20.13 | 3:28.20 | 226513 | 242132
14 | 53:48.33 | 3:53.42 | 242133 | 259649
15 | 57:42.00 | 4:41.30 | 259650 | 280754
16 | 62:23.30 | 5:21.30 | 280755 | 304859


Range status and errors

Selected range

Filename F:\AVAXHOME\Tom Waits - Every Time I Hear This Melody... - Live In Hamburg (1977)\Tom Waits - Every Time I Hear This Melody... - Live In Hamburg 1977.wav

Peak Level 85.0 %
Range Quality 99.9 %
Copy CRC 4375E788
Copy beendet

No errors occurred


AccurateRip summary

Track 1 not present in database
Track 2 not present in database
Track 3 not present in database
Track 4 not present in database
Track 5 not present in database
Track 6 not present in database
Track 7 not present in database
Track 8 not present in database
Track 9 not present in database
Track 10 not present in database
Track 11 not present in database
Track 12 not present in database
Track 13 not present in database
Track 14 not present in database
Track 15 not present in database
Track 16 not present in database

None of the tracks are present in the AccurateRip database

End of status report

RIPPED BY JANWAL46


RS Links:



In case you encounter dead links in any of my posts, please send me a private message !!!!


Password: janwal46

Say thanks, but please, no mirrors and/or direct links in your comments !!!!

ADVERTISING » Very Fast Download!



« ADVERTISING




Posted By: wersollsschonsein Date: 28 Nov 2009 12:46:44
.......another great upload not to be missed. Cheers from Ireland.
Posted By: old_pioneer Date: 28 Nov 2009 16:27:25
Thanks!!!!
Posted By: paulree Date: 29 Nov 2009 11:29:04
Thanks, great share, like all the others with music by Waits
Posted By: SteveJobs Date: 02 Dec 2009 07:10:33
Thanks a lot!
Posted By: musician3 Date: 07 Dec 2009 06:03:39
Great....Thank You Janwal
Posted By: lovelygun Date: 07 Jan 2010 20:23:51
Thank You Once Again!!!
Posted By: Quidsane Date: 07 Dec 2011 15:24:40
Covers link is dead...