Loading...

Michel Camilo - Spirit Of The Moment (2007) [Repost]

Posted By : tiburon | Date : 28 Feb 2012 20:07:03 | Comments : 4 |
|



Michel Camilo - Spirit Of The Moment (2007)
EAC 1.0b1 | FLAC tracks level 8 | Cue+Log+M3U+MD5 | Full Scans 600dpi | 300MB + 5% Recovery
Genre: Jazz, Latin Jazz

Depending on what track you’re listening to, “Spirit of the Moment” (Telarc) is presenting one of three big ideas. There’s Latin jazz as we know it. There’s jazz as we know it that is unmistakably informed by the cultural backgrounds of his new trio: a Dominican pianist (Michel Camilo), a Cuban bassist (Charles Flores) and a Cuban drummer (Dafnis Prieto). And there is the contemplative, rubato ballad, which reflects no particular identity or place. Each idea could generate a whole album, and it would be good to hear this fleet band make any of those records.

Track List
01. Just Now 4:33
02. My Secret Place 4:37
03. Spirit Of The Moment 5:03
04. Repercussions 7:08
05. Nefertiti 2:52
06. Nardis 3:50
07. Trilogy 5:25
08. Giant Steps 1:59
09. A Place In Time 5:02
10. Hurry Up And Wait 5:12
11. Liquid Crystal 3:49
12. Solar (Explorations) 3:57

musicians
Michel Camilo - piano
Charles Flores - bass
Dafnis Prieto - drums

Produced by Michel Camilo

EAC Logfile

Exact Audio Copy V1.0 beta 1 from 15. November 2010

EAC extraction logfile from 28. February 2012, 14:53

Michel Camilo / Spirit Of The Moment

Used drive : HL-DT-STDVDRAM GH20NS10 Adapter: 2 ID: 1

Read mode : Secure
Utilize accurate stream : Yes
Defeat audio cache : Yes
Make use of C2 pointers : No

Read offset correction : 667
Overread into Lead-In and Lead-Out : No
Fill up missing offset samples with silence : Yes
Delete leading and trailing silent blocks : No
Null samples used in CRC calculations : Yes
Used interface : Native Win32 interface for Win NT & 2000
Gap handling : Appended to previous track

Used output format : User Defined Encoder
Selected bitrate : 1024 kBit/s
Quality : High
Add ID3 tag : No
Command line compressor : C:\Program Files\Exact Audio Copy\Flac\flac.exe
Additional command line options : -8 -V -T "ARTIST=%a" -T "TITLE=%t" -T "ALBUM=%g" -T "DATE=%y" -T "TRACKNUMBER=%n" -T "TOTALTRACKS=%x" -T "GENRE=%m" -T "ALBUMARTIST=%v" -T "ALBUM ARTIST=%v" -T "COMMENT=EAC Secure Mode, Test & Copy, AccurateRip, FLAC -8" %s


TOC of the extracted CD

Track | Start | Length | Start sector | End sector
---------------------------------------------------------
1 | 0:00.00 | 4:33.04 | 0 | 20478
2 | 4:33.04 | 4:40.70 | 20479 | 41548
3 | 9:13.74 | 5:03.05 | 41549 | 64278
4 | 14:17.04 | 7:08.41 | 64279 | 96419
5 | 21:25.45 | 2:55.09 | 96420 | 109553
6 | 24:20.54 | 3:49.64 | 109554 | 126792
7 | 28:10.43 | 5:25.63 | 126793 | 151230
8 | 33:36.31 | 2:00.24 | 151231 | 160254
9 | 35:36.55 | 5:04.55 | 160255 | 183109
10 | 40:41.35 | 5:13.13 | 183110 | 206597
11 | 45:54.48 | 3:50.52 | 206598 | 223899
12 | 49:45.25 | 3:57.01 | 223900 | 241675


Track 1

Filename G:\Michel Camilo - Spirit Of The Moment (2007) [FLAC]\01 - Just Now.wav

Pre-gap length 0:00:02.00

Peak level 100.0 %
Extraction speed 4.8 X
Track quality 100.0 %
Test CRC BB0E791D
Copy CRC BB0E791D
Cannot be verified as accurate (confidence 21) [6A4E6E1B], AccurateRip returned [CA5B7B7D]
Copy OK

Track 2

Filename G:\Michel Camilo - Spirit Of The Moment (2007) [FLAC]\02 - My Secret Place.wav

Peak level 84.2 %
Extraction speed 4.5 X
Track quality 99.9 %
Test CRC 1111A927
Copy CRC 1111A927
Cannot be verified as accurate (confidence 21) [72F6BE7C], AccurateRip returned [F161B73C]
Copy OK

Track 3

Filename G:\Michel Camilo - Spirit Of The Moment (2007) [FLAC]\03 - Spirit Of The Moment.wav

Peak level 97.9 %
Extraction speed 5.9 X
Track quality 100.0 %
Test CRC 1171B509
Copy CRC 1171B509
Cannot be verified as accurate (confidence 21) [F829DB0F], AccurateRip returned [9059AA23]
Copy OK

Track 4

Filename G:\Michel Camilo - Spirit Of The Moment (2007) [FLAC]\04 - Repercussions.wav

Peak level 98.0 %
Extraction speed 6.6 X
Track quality 100.0 %
Test CRC 559BE1FC
Copy CRC 559BE1FC
Cannot be verified as accurate (confidence 21) [761A9454], AccurateRip returned [54C4C416]
Copy OK

Track 5

Filename G:\Michel Camilo - Spirit Of The Moment (2007) [FLAC]\05 - Nefertiti.wav

Peak level 95.6 %
Extraction speed 6.4 X
Track quality 100.0 %
Test CRC 6FA02C81
Copy CRC 6FA02C81
Cannot be verified as accurate (confidence 21) [64CBD3C1], AccurateRip returned [7ABB82E7]
Copy OK

Track 6

Filename G:\Michel Camilo - Spirit Of The Moment (2007) [FLAC]\06 - Nardis.wav

Peak level 98.0 %
Extraction speed 6.9 X
Track quality 100.0 %
Test CRC 7E8D3771
Copy CRC 7E8D3771
Cannot be verified as accurate (confidence 21) [10C9E2E7], AccurateRip returned [A69026CA]
Copy OK

Track 7

Filename G:\Michel Camilo - Spirit Of The Moment (2007) [FLAC]\07 - Trilogy.wav

Peak level 99.9 %
Extraction speed 7.6 X
Track quality 100.0 %
Test CRC FD80845C
Copy CRC FD80845C
Cannot be verified as accurate (confidence 21) [DDDC49E8], AccurateRip returned [7774947A]
Copy OK

Track 8

Filename G:\Michel Camilo - Spirit Of The Moment (2007) [FLAC]\08 - Giant Steps.wav

Peak level 96.5 %
Extraction speed 6.4 X
Track quality 100.0 %
Test CRC DCF19423
Copy CRC DCF19423
Cannot be verified as accurate (confidence 21) [BC08360E], AccurateRip returned [A6A0BFBE]
Copy OK

Track 9

Filename G:\Michel Camilo - Spirit Of The Moment (2007) [FLAC]\09 - A Place In Time.wav

Peak level 70.5 %
Extraction speed 7.9 X
Track quality 100.0 %
Test CRC 2AE7A782
Copy CRC 2AE7A782
Cannot be verified as accurate (confidence 20) [DA3F6AAA], AccurateRip returned [98015D8B]
Copy OK

Track 10

Filename G:\Michel Camilo - Spirit Of The Moment (2007) [FLAC]\10 - Hurry Up And Wait.wav

Peak level 99.9 %
Extraction speed 8.1 X
Track quality 100.0 %
Test CRC 8D683CA3
Copy CRC 8D683CA3
Cannot be verified as accurate (confidence 21) [8ACA1D3D], AccurateRip returned [6AA5976D]
Copy OK

Track 11

Filename G:\Michel Camilo - Spirit Of The Moment (2007) [FLAC]\11 - Liquid Crystal.wav

Peak level 73.5 %
Extraction speed 8.0 X
Track quality 100.0 %
Test CRC A8DBC8B6
Copy CRC A8DBC8B6
Cannot be verified as accurate (confidence 21) [18811561], AccurateRip returned [08472C40]
Copy OK

Track 12

Filename G:\Michel Camilo - Spirit Of The Moment (2007) [FLAC]\12 - Solar (Explorations).wav

Peak level 100.0 %
Extraction speed 8.4 X
Track quality 100.0 %
Test CRC B340D20B
Copy CRC B340D20B
Cannot be verified as accurate (confidence 21) [19C5F744], AccurateRip returned [6A70C005]
Copy OK


No tracks could be verified as accurate
You may have a different pressing from the one(s) in the database

No errors occurred

End of status report

==== Log checksum FB0EA1718369CCC753C4FD586A83B3EAF0E5D0A9151BBED0DA886CFC11C1E5A3 ====

Dynamic Range Analysis

--------------------------------------------------------------------------------
Analyzed: Michel Camilo / Spirit Of The Moment
--------------------------------------------------------------------------------

DR Peak RMS Duration Track
--------------------------------------------------------------------------------
DR12 0.00 dB -13.85 dB 4:33 01-Just Now
DR12 -1.48 dB -18.64 dB 4:41 02-My Secret Place
DR12 -0.18 dB -15.43 dB 5:03 03-Spirit Of The Moment
DR11 -0.17 dB -13.39 dB 7:09 04-Repercussions
DR13 -0.39 dB -19.30 dB 2:55 05-Nefertiti
DR11 -0.17 dB -12.72 dB 3:50 06-Nardis
DR11 0.00 dB -13.93 dB 5:26 07-Trilogy
DR12 -0.31 dB -14.42 dB 2:00 08-Giant Steps
DR14 -3.03 dB -21.99 dB 5:05 09-A Place In Time
DR10 0.00 dB -11.78 dB 5:13 10-Hurry Up And Wait
DR13 -2.67 dB -19.69 dB 3:51 11-Liquid Crystal
DR16 0.00 dB -22.74 dB 3:57 12-Solar (Explorations)
--------------------------------------------------------------------------------

Number of tracks: 12
Official DR value: DR12

Samplerate: 44100 Hz
Channels: 2
Bits per sample: 16
Bitrate: 596 kbps
Codec: FLAC
================================================================================



Rip by tiburon



The Files Are Interchangeable
ADVERTISING » Very Fast Download!



« ADVERTISING




Posted By: kudghat Date: 29 Feb 2012 07:24:14
Again thanks a lot Tiburon for your generosity and efforts ! Camilo is a tremenduous pianist !
Posted By: ljhatlga Date: 29 Feb 2012 16:00:44
A real treat--THANKS!
Posted By: fastantico Date: 01 Mar 2012 09:44:04
Muchas gracias!
Posted By: alsoel Date: 28 Nov 2012 02:17:26
Una maravilla de disco. Muchas Gracias!!!!!!