Loading...

New York Trio - Stardust (Venus Hyper Magnum Sound VHCD-1026)

Posted By : titopuente | Date : 08 May 2009 19:04:52 | Comments : 9 |
|



New York Trio - Stardust (Venus Hyper Magnum Sound VHCD-1026)
Audiophile | FLAC | EAC Rip | Cue + Log | 408 MB | Covers | 2009

In the dawn of the 21st century, pianist Bill Charlap took the jazz world by storm with a series of rewarding albums for labels both in the U.S. and abroad. On Blues in the Night, he leads his New York Trio in a recording made for the Japanese label Venus, with veteran bassist Jay Leonhart and fellow young gun Bill Stewart joining him.
This CD is their new release with Ken Peplowski on Venus.

01 - In The Middle Of A Kiss
02 - Body And Soul
03 - Serenade To Sweden
04 - No Regrets
05 - My Funny Valentine
06 - So In Love
07 - Stardust
08 - Summertime
09 - Stardust Reprise



EAC LOG
Exact Audio Copy V0.99 prebeta 4 from 23. January 2008

EAC extraction logfile from 7. May 2009, 22:25

New York Trio & Ken Peplowski / Stardust

Used drive : HL-DT-STDVDRAM GSA-H10N Adapter: 2 ID: 0

Read mode : Secure
Utilize accurate stream : Yes
Defeat audio cache : Yes
Make use of C2 pointers : No

Read offset correction : 667
Overread into Lead-In and Lead-Out : No
Fill up missing offset samples with silence : Yes
Delete leading and trailing silent blocks : No
Null samples used in CRC calculations : Yes
Used interface : Native Win32 interface for Win NT & 2000
Gap handling : Appended to previous track

Used output format : Internal WAV Routines
Sample format : 44.100 Hz; 16 Bit; Stereo


TOC of the extracted CD

Track | Start | Length | Start sector | End sector
---------------------------------------------------------
1 | 0:00.00 | 9:51.17 | 0 | 44341
2 | 9:51.17 | 8:21.18 | 44342 | 81934
3 | 18:12.35 | 8:23.17 | 81935 | 119676
4 | 26:35.52 | 7:26.00 | 119677 | 153126
5 | 34:01.52 | 5:03.15 | 153127 | 175866
6 | 39:04.67 | 10:16.05 | 175867 | 222071
7 | 49:20.72 | 6:38.03 | 222072 | 251924
8 | 55:59.00 | 7:55.05 | 251925 | 287554
9 | 63:54.05 | 2:10.58 | 287555 | 297362


Track 1

Filename E:\01 - In The Middle Of A Kiss.wav

Pre-gap length 0:00:02.00

Peak level 100.0 %
Track quality 100.0 %
Test CRC 4BD3B204
Copy CRC 4BD3B204
Track not present in AccurateRip database
Copy OK

Track 2

Filename E:\02 - Body And Soul.wav

Pre-gap length 0:00:04.60

Peak level 100.0 %
Track quality 100.0 %
Test CRC 9EF88B5F
Copy CRC 9EF88B5F
Track not present in AccurateRip database
Copy OK

Track 3

Filename E:\03 - Serenade To Sweden.wav

Pre-gap length 0:00:04.60

Peak level 100.0 %
Track quality 100.0 %
Test CRC 68A72369
Copy CRC 68A72369
Track not present in AccurateRip database
Copy OK

Track 4

Filename E:\04 - No Regrets.wav

Pre-gap length 0:00:04.60

Peak level 100.0 %
Track quality 100.0 %
Test CRC 12EF8810
Copy CRC 12EF8810
Track not present in AccurateRip database
Copy OK

Track 5

Filename E:\05 - My Funny Valentine.wav

Pre-gap length 0:00:04.60

Peak level 99.3 %
Track quality 100.0 %
Test CRC 5702BA62
Copy CRC 5702BA62
Track not present in AccurateRip database
Copy OK

Track 6

Filename E:\06 - So In Love.wav

Pre-gap length 0:00:04.60

Peak level 100.0 %
Track quality 100.0 %
Test CRC 03E56FA6
Copy CRC 03E56FA6
Track not present in AccurateRip database
Copy OK

Track 7

Filename E:\07 - Stardust.wav

Pre-gap length 0:00:04.60

Peak level 100.0 %
Track quality 100.0 %
Test CRC 5643462B
Copy CRC 5643462B
Track not present in AccurateRip database
Copy OK

Track 8

Filename E:\08 - Summertime.wav

Pre-gap length 0:00:04.60

Peak level 100.0 %
Track quality 100.0 %
Test CRC D22D6267
Copy CRC D22D6267
Track not present in AccurateRip database
Copy OK

Track 9

Filename E:\09 - Stardust Reprise.wav

Pre-gap length 0:00:04.60

Peak level 96.9 %
Track quality 100.0 %
Test CRC FD84B4B5
Copy CRC FD84B4B5
Track not present in AccurateRip database
Copy OK


None of the tracks are present in the AccurateRip database

No errors occurred

End of status report


Audiochecker
AUDIOCHECKER v2.0 beta (build 457) - by Dester - opdester@freemail.hu
~~~~~~~~~~~~~~~~~~~~~~~~~~~~~~~~~~

Started at: vendredi, 08. 05. 2009. - 20:27.43
9 files found

1 -===- d:\Ma Musique\New York Trio & Ken Peplowski - Stardust (2009) [FLAC] {Venus Japan}\01 - In The Middle Of A Kiss.flac
Extracted successfully
Conclusion: this track is CDDA with probability 100%
Tempfile successfully deleted.

2 -===- d:\Ma Musique\New York Trio & Ken Peplowski - Stardust (2009) [FLAC] {Venus Japan}\02 - Body And Soul.flac
Extracted successfully
Conclusion: this track is CDDA with probability 100%
Tempfile successfully deleted.

3 -===- d:\Ma Musique\New York Trio & Ken Peplowski - Stardust (2009) [FLAC] {Venus Japan}\03 - Serenade To Sweden.flac
Extracted successfully
Conclusion: this track is CDDA with probability 100%
Tempfile successfully deleted.

4 -===- d:\Ma Musique\New York Trio & Ken Peplowski - Stardust (2009) [FLAC] {Venus Japan}\04 - No Regrets.flac
Extracted successfully
Conclusion: this track is CDDA with probability 100%
Tempfile successfully deleted.

5 -===- d:\Ma Musique\New York Trio & Ken Peplowski - Stardust (2009) [FLAC] {Venus Japan}\05 - My Funny Valentine.flac
Extracted successfully
Conclusion: this track is CDDA with probability 100%
Tempfile successfully deleted.

6 -===- d:\Ma Musique\New York Trio & Ken Peplowski - Stardust (2009) [FLAC] {Venus Japan}\06 - So In Love.flac
Extracted successfully
Conclusion: this track is CDDA with probability 100%
Tempfile successfully deleted.

7 -===- d:\Ma Musique\New York Trio & Ken Peplowski - Stardust (2009) [FLAC] {Venus Japan}\07 - Stardust.flac
Extracted successfully
Conclusion: this track is CDDA with probability 100%
Tempfile successfully deleted.

8 -===- d:\Ma Musique\New York Trio & Ken Peplowski - Stardust (2009) [FLAC] {Venus Japan}\08 - Summertime.flac
Extracted successfully
Conclusion: this track is CDDA with probability 100%
Tempfile successfully deleted.

9 -===- d:\Ma Musique\New York Trio & Ken Peplowski - Stardust (2009) [FLAC] {Venus Japan}\09 - Stardust Reprise.flac
Extracted successfully
Conclusion: this track is CDDA with probability 100%
Tempfile successfully deleted.


Finished at: vendredi, 08. 05. 2009. - 20:34.28 (operation time: 0:06.44)

ADVERTISING » Very Fast Download!



« ADVERTISING




Posted By: MickMono Date: 08 May 2009 20:37:46
Aren't these Venus recordings fantastic? titopuente - Thank you very much for this! Have a nice weekend.
Thankks as well for Mr. Kuhn (posted before)
Posted By: LazyJazz Date: 09 May 2009 00:24:11
thanks, so like new york trio works.
Posted By: passasp Date: 09 May 2009 10:10:08
Thank you, titopuente.
Great work.
Posted By: shaizada Date: 09 May 2009 18:30:46
Thanks so much!

Do you by any chance have Eric Alexander - Gentle Ballads Part II ?? That would be an absolutely awesome upload as it is from the same Venus label.

Thanks again.
Posted By: mouiy Date: 27 May 2009 13:50:23
http://rapidshare.com/files/230685255/NYTS.part1.rar
http://rapidshare.com/files/230685465/NYTS.part2.rar
http://rapidshare.com/files/230685253/NYTS.part3.rar

http://rapidshare.com/files/230685393/NYTS.part4.rar
http://rapidshare.com/files/230685213/NYTS.part5.rar
Posted By: Rommeo Date: 17 Jul 2009 23:01:52
Thank you very much !
Posted By: Basil21 Date: 01 Aug 2009 12:09:03
Very good, many thanks, titopuente!!
Posted By: thc9 Date: 13 Dec 2009 16:26:26
thank you!
Posted By: dawndark Date: 30 Jul 2011 15:52:14
FANTASTIC tHANK YOU :)