Loading...

Richard Bona - Bonafied (2013)

Posted By : tiburon | Date : 26 Apr 2013 19:05:09 | Comments : 7 |
|



Richard Bona - Bonafied (2013)
Digital Download | FLAC tracks | M3U+MD5 | Digital Booklet PDF | 299MB + 5% Recovery
Genre: Jazz, Ethnic Fusion

Jazz bassist Richard Bona was born and raised in the West African nation of Cameroon, going on to session dates with Joe Zawinul, Regina Carter, and Bob James as well as a two-year stint as musical director for the great Harry Belafonte. He made his debut as a headliner in 1999 with Scenes from My Life, and two years later Reverence came out.

Track List
01. Dunia E 5:02
02. Mut'Esukudu 6:10
03. Akwappella 3:16
04. Janjo La Maya 5:23
05. Mulema 4:40
06. Uprising Of Kindness 4:01
07. Tumba La Nyama 4:30
08. Diba La Bobe 5:19
09. La Fille D'A Cote 4:08
10. Socopao 5:58
11. On The 4th Of July 4:11

musicians
Richard Bona - bass, vocals, guitars, percussion, balafon
Dave Eggar - cello
Etienne Stadwijk - acoustic piano
Michael Rodriguez - trumpet
Osmany Parades - acoustic piano
Obed Calvaire - drums
Luisito Quintero - percussion
Eriko Sato - violin
Joyce Hamann - violin
Louise Schulman - viola
David Eggar - cello
Gil Goldstein - string arrangement
Vincent Perrani - accordion
Camille Dalmais - vocals
Sylvain Luc - guitars

Produced by Richard Bona

Dynamic Range Analysis

--------------------------------------------------------------------------------
Analyzed: Richard Bona / Bonafied
--------------------------------------------------------------------------------

DR Peak RMS Duration Track
--------------------------------------------------------------------------------
DR10 -0.86 dB -14.04 dB 5:00 01-Dunia E
DR12 -0.91 dB -15.78 dB 6:10 02-Mut'Esukudu
DR11 -0.82 dB -14.90 dB 3:16 03-Akwappella
DR9 -1.19 dB -13.06 dB 5:21 04-Janjo La Maya
DR11 -0.73 dB -14.71 dB 4:39 05-Mulema
DR12 -0.89 dB -17.72 dB 4:02 06-Uprising Of Kindness
DR12 -0.78 dB -15.92 dB 4:30 07-Tumba La Nyama
DR9 -0.41 dB -11.16 dB 5:20 08-Diba La Bobe
DR15 0.00 dB -18.19 dB 4:07 09-La Fille D'A Côté
DR10 -0.52 dB -12.74 dB 5:56 10-Socopao
DR12 -0.79 dB -14.94 dB 4:12 11-On The 4th Of July
--------------------------------------------------------------------------------

Number of tracks: 11
Official DR value: DR11

Samplerate: 44100 Hz
Channels: 2
Bits per sample: 16
Bitrate: 725 kbps
Codec: FLAC
================================================================================


ADVERTISING » Very Fast Download!



« ADVERTISING




Posted By: grafassi Date: 26 Apr 2013 20:31:07
Love Bona. "Reverence" is a masterpiece. Thanks for the new one, tiburon.
Posted By: futor Date: 27 Apr 2013 11:08:37
...excellent link my friend !
Posted By: Basil21 Date: 27 Apr 2013 14:18:26
Hermoso, muchas gracias, tiburon!
Posted By: waterlogic Date: 28 Apr 2013 06:30:39
This is fantastic ... thank you so much !
Posted By: Kutya Date: 28 Apr 2013 09:46:14
Than You from Budapest!
Posted By: itadiegues Date: 28 Apr 2013 18:35:03
Gracias tiburon.
Posted By: paul83 Date: 04 May 2013 17:10:13
thank you tiburon