Loading...

Maynard Ferguson - Big Bop Nouveau (1990)

Posted By : PCWhizzkid | Date : 29 Jul 2011 01:08:17 | Comments : 2 |
|



Maynard Ferguson - Big Bop Nouveau (1990)
EAC V1.0 beta 1 | FLAC ( Secure Mode ) Image + Cue + Log - 268 MB
FULL SCANS - 17 MB (600dpi) | Recovery Record + 3%
Genre: Jazz / Big Band | Label: Intima | Catalogue No: 773390-2
Wupload & Filesonic

This is one of the best Maynard Albums that he ever put out.It's also one of my favorite Maynard albums ever. "Big Bop Nouveau" is a lot warmer than the machine-like drill teams he used to front, and even the arrangements are less showy. Ferguson himself contributes some good solos. For me though the album has 2 major musical highlights ~ alto saxophonist Christopher Hollyday's breakneck reading of Ray Noble's Cherokee and the unaccompanied sax quartet half way through the reading of 'crusin' for a bluesin' is sheer brilliance.


TRACK LIST:

01. Blue Birdland [0:05:14.00]
02. Cherokee [0:04:30.28]
03. Caught In The Current [0:04:29.72]
04. But Beautiful [0:06:05.20]
05. Cruisin' For A Bluesin' [0:07:51.08]
06. The Maynard Ferguson Hit Medley [0:11:58.05]

Recording Time: - 40:08


EAC LOG
Exact Audio Copy V1.0 beta 1 from 15. November 2010

EAC extraction logfile from 26. July 2011, 11:24

Maynard Ferguson / Big Bop Nouveau

Used drive : HL-DT-STDVDRAM GH22NS40 Adapter: 5 ID: 0

Read mode : Secure
Utilize accurate stream : Yes
Defeat audio cache : Yes
Make use of C2 pointers : No

Read offset correction : 667
Overread into Lead-In and Lead-Out : No
Fill up missing offset samples with silence : Yes
Delete leading and trailing silent blocks : No
Null samples used in CRC calculations : Yes
Used interface : Native Win32 interface for Win NT & 2000

Used output format : User Defined Encoder
Selected bitrate : 1024 kBit/s
Quality : High
Add ID3 tag : No
Command line compressor : C:\Program Files (x86)\Exact Audio Copy\FLAC\FLAC.EXE
Additional command line options : -6 -V -T "ARTIST=%a" -T "TITLE=%t" -T "ALBUM=%g" -T "DATE=%y" -T "TRACKNUMBER=%n" -T "GENRE=%m" -T "COMMENT=%e" %j--picture="%i"%j %s -o %d


TOC of the extracted CD

Track | Start | Length | Start sector | End sector
---------------------------------------------------------
1 | 0:00.37 | 5:14.00 | 37 | 23586
2 | 5:14.37 | 4:30.28 | 23587 | 43864
3 | 9:44.65 | 4:29.72 | 43865 | 64111
4 | 14:14.62 | 6:05.20 | 64112 | 91506
5 | 20:20.07 | 7:51.08 | 91507 | 126839
6 | 28:11.15 | 11:58.05 | 126840 | 180694


Range status and errors

Selected range

Filename T:\Maynard Ferguson - Big Bop Nouveau\Maynard Ferguson - Big Bop Nouveau.wav

Peak level 100.0 %
Extraction speed 0.5 X
Range quality 100.0 %
Test CRC BB888F6B
Copy CRC BB888F6B
Copy OK

No errors occurred


AccurateRip summary

Track 1 accurately ripped (confidence 5) [76B6FFB9]
Track 2 accurately ripped (confidence 5) [558E0025]
Track 3 accurately ripped (confidence 5) [5C250EEE]
Track 4 accurately ripped (confidence 5) [85948ADE]
Track 5 accurately ripped (confidence 5) [4A234C9F]
Track 6 accurately ripped (confidence 4) [F35988F2]

All tracks accurately ripped

End of status report

==== Log checksum CBE1E07338A27B6D49BE364217331C93A285ABAEE977A495762BB8BCC0EDA4B2 ====







ADVERTISING » Very Fast Download!



« ADVERTISING




Posted By: frav10 Date: 29 Jul 2011 04:47:00
Thank's from Israel :))
Posted By: musician3 Date: 29 Jul 2011 07:02:14
Great thank You