Loading...

Anita O'Day - Waiter, Make Mine Blues (1960)

Posted By : chpoof | Date : 08 Jun 2009 06:02:21 | Comments : 5 |
|



Anita O'Day - Waiter, Make Mine Blues (1960)
CD Rip | FLAC File | EAC Log & Cue | Front & Back Cover Scans (300 dpi) | Split RAR Files (130 MB and 108 MB)

Between 1955 and 1963, jazz singer Anita O'Day recorded a string of fine albums for the Verve label, including Waiter, Make Mine Blues, released in 1960. Featuring arrangements and an orchestra conducted by Russell Garcia, the album has been reissued on CD in Japan but is now out of print.

All Music Guide: Waiter, Make Mine Blues pairs Anita O'Day with arranger Russ Garcia, whose delightful and imaginative treatments perfectly complement the singer's lithe vocals. West Coast greats including Barney Kessel and Bud Shank are also on hand to lend the session an even lighter, sweeter tone that couches the melancholy the album's title portends -- songs like "The Thrill Is Gone" and "When Sunny Gets Blue" capture O'Day at her most affecting, balancing her trademark sophistication with the world-weary resignation of one who has loved and lost.

1. That Old Feeling
2. Angel Eyes
3. The Thrill Is Gone
4. Detour Ahead
5. Yesterdays
6. Waiter, Make Mine Blues
7. Whatever Happened to You
8. When Sunny Gets Blue
9. Stella by Starlight
10. Mad About the Boy
11. A Blues Serenade
12. Good-bye

EAC Log
Exact Audio Copy V0.99 prebeta 4 from 23. January 2008

EAC extraction logfile from 7. June 2009, 16:42

Anita O'Day / Waiter, Make Mine Blues

Used drive : _NEC DVD+-RW ND-3530A Adapter: 0 ID: 1

Read mode : Secure
Utilize accurate stream : Yes
Defeat audio cache : Yes
Make use of C2 pointers : No

Read offset correction : 48
Overread into Lead-In and Lead-Out : No
Fill up missing offset samples with silence : Yes
Delete leading and trailing silent blocks : No
Null samples used in CRC calculations : Yes
Used interface : Native Win32 interface for Win NT & 2000

Used output format : Internal WAV Routines
Sample format : 44.100 Hz; 16 Bit; Stereo


TOC of the extracted CD

Track | Start | Length | Start sector | End sector
---------------------------------------------------------
1 | 0:00.37 | 2:31.00 | 37 | 11361
2 | 2:31.37 | 3:42.25 | 11362 | 28036
3 | 6:13.62 | 2:16.38 | 28037 | 38274
4 | 8:30.25 | 4:26.50 | 38275 | 58274
5 | 12:57.00 | 5:14.00 | 58275 | 81824
6 | 18:11.00 | 3:24.12 | 81825 | 97136
7 | 21:35.12 | 4:45.00 | 97137 | 118511
8 | 26:20.12 | 3:05.63 | 118512 | 132449
9 | 29:26.00 | 2:53.25 | 132450 | 145449
10 | 32:19.25 | 3:29.37 | 145450 | 161161
11 | 35:48.62 | 3:04.13 | 161162 | 174974
12 | 38:53.00 | 3:40.50 | 174975 | 191524


Range status and errors

Selected range

Filename C:\Documents and Settings\My Documents\My Music\Anita O'Day - Waiter, Make Mine Blues.wav

Peak level 100.0 %
Range quality 100.0 %
Copy CRC E733DC02
Copy OK

No errors occurred


AccurateRip summary

Track 1 accurately ripped (confidence 1) [57915618]
Track 2 accurately ripped (confidence 1) [D9377AD9]
Track 3 accurately ripped (confidence 1) [6083797B]
Track 4 accurately ripped (confidence 1) [4671087A]
Track 5 accurately ripped (confidence 1) [34E8621B]
Track 6 accurately ripped (confidence 1) [9FE4B3E2]
Track 7 accurately ripped (confidence 1) [1C7535BD]
Track 8 accurately ripped (confidence 1) [6257DDA9]
Track 9 accurately ripped (confidence 1) [FF491C84]
Track 10 accurately ripped (confidence 1) [BC0BAA5C]
Track 11 accurately ripped (confidence 1) [36A09E5A]
Track 12 accurately ripped (confidence 1) [13DD9728]

All tracks accurately ripped

End of status report


ADVERTISING » Very Fast Download!



« ADVERTISING




Posted By: Goodspeed Date: 08 Jun 2009 16:14:46
Beautiful record, great sound. Thanks a bunch, chpoof!
Posted By: fastantico Date: 08 Jun 2009 18:13:50
Thank you very much!
Posted By: chpoof Date: 09 Jun 2009 01:14:31
You're both quite welcome! :-)
Posted By: musician3 Date: 08 Sep 2009 00:09:11
Amazing!!!!.....Thank You
Posted By: eisler444 Date: 19 Nov 2009 14:27:13
Спасибо!!!