Loading...

John Coltrane - The Classic Quartet: Complete Impulse! Studio Recordings [8CD BoxSet] (1998) {GRP Records} [repost]

Posted By : ruskaval | Date : 30 Sep 2013 14:46:30 | Comments : 5 |
|



John Coltrane - The Classic Quartet: Complete Impulse! Studio Recordings [8CD BoxSet] (1998) {GRP Records}
EAC rip (secure mode) | FLAC (tracks)+CUE+LOG -> 3.41 Gb | MP3 @320 -> 1.22 Gb
Full Artwork @ 300 dpi (png) -> 423 Mb | 5% repair rar
© 1998 GRP Records / Impulse! | IMPD8-280
Jazz / Avant-Garde Jazz / Modal Music / Free Jazz / Saxophone

Here it is: eight CDs worth of John Coltrane's classic quartet, comprised of bassist Jimmy Garrison, pianist McCoy Tyner, and drummer Elvin Jones, recorded between December of 1961 and September of 1965 when the artist followed his restless vision and expanded the band before assembling an entirely new one before his death. What transpired over the course of the eight albums and supplementary material used elsewhere is nothing short of a complete transfiguration of one band into another one, from a band that followed the leader into places unknown to one that inspired him and pushed him further. All of this transpired in the span of only three years.


The group that the saxophonist had assembled for Coltrane in 1962, a band that had been together a little while and had performed together at the Village Vanguard (the tracks that include the quartet without Eric Dolphy from Impressions are here, and, in fact, the first pieces on the set are from those session dates chronologically) in a variety of settings, is almost nothing like the band that made Kulu Se Mama in 1965.

For a change, the oft-employed yet irritating chronological method of compiling a box makes sense here. McCoy Tyner's piano style, that rich open-ended modal chromaticism he developed was at work on "The Inchworm," astonishingly enough the first work recorded in the 1962 studio dates. "Out of This World" was one of the last from that session that would produce the album Coltrane. The blues element that would disappear from later records -- at least consciously -- was the driving force behind ballads like "Soul Eyes" and "After the Rain."

But it isn't until the latter end of 1963 that we hear the band beginning to gel into the unit that would make A Love Supreme and create the tracks that would be assembled into First Meditations for Quartet. There are the two alternate takes of "Alabama," and the soprano solo that is positively danced around by the rhythm section on "Dear Old Stockholm." There is also the great schism in Coltrane, much that took place between the June 1964 session that produced "Crescent" (and its first version is on disc eight, which is full of supplementary and unreleased material) and the following December when A Love Supreme was recorded. Here is the hinges in the whole box, the questions that need to be resolved than that this box only begs more than answers: what happened to that tight conscripted modalism Coltrane had been working on in his official releases prior to that time period as many of them hold clues but never give away the entire picture.


What the box does in its voluminous way is set the record straight that there was no retrenchment in pursuant releases to A Love Supreme. There were softer moments on record, but the material in the can was far more adventurous recorded at about the same time, such as the "Suite" or "Transition" or "Dusk Dawn." Disc eight is also a treat in that it contains seven "works in progress" from all periods in the quartet's history. It begins with the aforementioned version of "Crescent," which is appreciably different than the master take in Tyner's solo particularly. There's also an incomplete though steaming initial take of "Bessie's Blues." Perhaps the most beautiful thing on the final disc is the alternate take of part II of A Love Supreme's "Resolution," with its elongated obligato by Coltrane and Tyner's gorgeous tenths playing ostinato during the saxophone solo. There's an alternate of "Feelin' Good" that's no big deal, followed by breakdowns and alternate takes of both "Dear Lord" and "Living Space," both of which reveal the harmonic development of a scale as it becomes the architectural model for the rest of the composition and improvisation. There can be no arguing the value of the originally released recordings; whether they were issued during Coltrane's lifetime or after his death, they tell a story that millions of listeners formed their impressions by, true or false, and created a legacy that lives on. But there is also something to be said for setting the record straight, and the chronological approach that this set takes in no way desecrates the integrity of the original albums themselves -- unlike the Ornette Coleman box. Simply put, it is indispensable to those who need a deeper understanding of Coltrane's music and the development of his most influential period. The sound quality is fully remastered to 20-bit technology, and the package is unwieldy but beautiful and sturdy. It's a must.



tracklist:
CD1

01. Greensleeves (mono version) (Dec 21, 1961)
02. It's Easy To Remember (Dec 21, 1961 - Ballads)
03. The Inch Worm (April 12, 1962 - Coltrane)
04. Big Nick (April 12, 1962 - Coltrane)
05. Out Of This World (June 19, 1962 - Coltrane)
06. Soul Eyes (June 19, 1962 - Coltrane)
07. Miles' Mode (June 20, 1962 - Coltrane)
08. Tunji (June 29, 1962 - Coltrane)
09. Nancy (With The Laughing Face) (Sept 18, 1962 - Ballads)
10. What's New (Sept 18, 1962 - Ballads)
11. Up 'Gainst the Wall (Sept 18, 1962 - Impressions and Coltrane)
12. Too Young To Go Steady (Nov 13, 1962 - Ballads)
13. All Or Nothing At All (Nov 13, 1962 - Ballads)
14. I Wish I Knew (Nov 13, 1962 - Ballads)

CD2
01. You Don't Know What Love Is (Nov 13, 1962 - Ballads)
02. Say It (Over And Over Again) (Nov 13, 1962 - Ballads)
03. Vilia (March 6, 1963 - Live at Birdland)
04. After The Rain (April 29, 1963 - Impressions & Dear Old Stockholm)
05. Dear Old Stockholm (April 29, 1963 - Dear Old Stockholm)
06. Your Lady (Nov 18, 1963 - Live at Birdland)
07. Alabama (takes 4 & 5) (Nov 18, 1963 - Live at Birdland)
08. Lonnie's Lament (April 27, 1964 - Crescent)
09. The Drum Thing (April 27, 1964 - Crescent)
10. Wise One (April 27, 1964 - Crescent)



CD3
01. Crescent (June 1, 1964 - Crescent)
02. Bessie's Blues (June 1, 1964 - Crescent)
03. A Love Supreme, Part 1 - Acknowledgement (Dec 9, 1964 - A Love Supreme)
04. A Love Supreme, Part 2 - Resolution (Dec 9, 1964 - A Love Supreme)
05. A Love Supreme, Part 3 - Pursuance (Dec 9, 1964 - A Love Supreme)
06. A Love Supreme, Part 4 - Psalm (Dec 9, 1964 - A Love Supreme)
07. Nature Boy (first version) (Feb 17, 1965)
08. Nature Boy (Feb 18, 1965 - The John Coltrane Quartet Plays)
09. Feelin' Good (Feb 18, 1965 - The John Coltrane Quartet Plays)
10. Chim Chim Cheree (May 17, 1965 - The John Coltrane Quartet Plays)

CD4
01. Brasilia (May 17, 1965 - The John Coltrane Quartet Plays)
02. Song of Praise (May 17, 1965 - The John Coltrane Quartet Plays)
03. After The Crescent (May 26, 1965 - Dear Old Stockholm)
04. Dear Lord (May 26, 1965 - Dear Old Stockholm)
05. One Down, One Up (June 10, 1965 - Dear Old Stockholm)
06. Welcome (June 16, 1965 - Transition & Kulu Sé Mama)
07. The Last Blues (June 16, 1965 - Living Space)



CD5
01. Untitled Original 90314 (June 10, 1965 - Living Spaces)
02. Transition (June 10, 1965 - Transition)
03. Suite: (June 10, 1965 - Transition)
Part I - Prayer and Meditationay
Part II - Peace and After
Part III - Prayer and Meditation: Evening
Part IV - Affirmation
Part V - Prayer and Meditation: 4AM
04. Living Space (June 16, 1965 - Transition)
05. Dusk Dawn (June 16, 1965 - Transition)

CD6
01. Vigil (June 16, 1965 - Transition & Kulu Sé Mama)
02. Untitled Original 90320 (June 16, 1965 - Living Space)
03. Dearly Beloved (June 26, 1965 - Sun Ship)
04. Attaining (June 26, 1965 - Sun Ship)
05. Sun Ship (June 26, 1965 - Sun Ship)
06. Ascent (June 26, 1965 - Sun Ship)
07. Amen (June 26, 1965 - Sun Ship)



CD7
01. Love (Sept 2, 1965 - First Meditations)
02. Compassion (Sept 2, 1965 - First Meditations)
03. Joy (Sept 2, 1965 - First Meditations)
04. Consequences (Sept 2, 1965 - First Meditations)
05. Serenity (Sept 2, 1965 - First Meditations)
06. Joy (second version) (Sept 2, 1965)

CD8
01. Crescent (previously unreleased, first version)
02. Bessie's Blues (previously unreleased, first version, incomplete)
03. Song of Praise (previously unreleased, first version)
04. A Love Supreme, Part III - Resolution (previously unreleased, alternate take)
05. Feelin' Good (previously unreleased, alternate take)
06. Dear Lord (previously unreleased, alternate take, breakdowns)
07. Living Space (previously unreleased, alternate take, breakdowns)



EAC log CD1
EAC extraction logfile from 11. July 2005, 23:21 for CD
John Coltrane / Coltrane - The Classic Quartet - Complete Impulse! Studio Recordings (CD 1 of 8)

Used drive : PLEXTOR CD-R PX-W4824A Adapter: 1 ID: 0
Read mode : Secure with NO C2, accurate stream, disable cache
Read offset correction : 98
Overread into Lead-In and Lead-Out : Yes

Used output format : C:\Programme\FLAC\flac.exe (User Defined Encoder)
320 kBit/s
Additional command line options : -8 -V -T "artist=%a" -T "title=%t" -T "album=%g" -T "date=%y" -T "tracknumber=%n" -T "genre=%m" -T "comment=Impulse! IMPDD8-280" %s

Other options :
Fill up missing offset samples with silence : Yes
Delete leading and trailing silent blocks : No
Installed external ASPI interface


Track 1
Filename C:\Sharing_Geplant\John Coltrane - Coltrane - The Classic Quartet - Complete Impulse! Studio Recordings (1998) [FLAC]\CD1 of 8\01 - Greensleeves.wav

Pre-gap length 0:00:02.00

Peak level 94.4 %
Track quality 99.9 %
Test CRC 7F1470C7
Copy CRC 7F1470C7
Copy OK

Track 2
Filename C:\Sharing_Geplant\John Coltrane - Coltrane - The Classic Quartet - Complete Impulse! Studio Recordings (1998) [FLAC]\CD1 of 8\02 - It's Easy To Remember.wav

Pre-gap length 0:00:03.57

Peak level 100.0 %
Track quality 100.0 %
Test CRC 46CB3138
Copy CRC 46CB3138
Copy OK

Track 3
Filename C:\Sharing_Geplant\John Coltrane - Coltrane - The Classic Quartet - Complete Impulse! Studio Recordings (1998) [FLAC]\CD1 of 8\03 - The Inchworm.wav

Pre-gap length 0:00:03.57

Peak level 99.3 %
Track quality 100.0 %
Test CRC F7EF2955
Copy CRC F7EF2955
Copy OK

Track 4
Filename C:\Sharing_Geplant\John Coltrane - Coltrane - The Classic Quartet - Complete Impulse! Studio Recordings (1998) [FLAC]\CD1 of 8\04 - Big Nick.wav

Pre-gap length 0:00:03.56

Peak level 100.0 %
Track quality 100.0 %
Test CRC 1E39B9A8
Copy CRC 1E39B9A8
Copy OK

Track 5
Filename C:\Sharing_Geplant\John Coltrane - Coltrane - The Classic Quartet - Complete Impulse! Studio Recordings (1998) [FLAC]\CD1 of 8\05 - Out Of This World.wav

Pre-gap length 0:00:03.56

Peak level 99.1 %
Track quality 100.0 %
Test CRC 82BA5470
Copy CRC 82BA5470
Copy OK

Track 6
Filename C:\Sharing_Geplant\John Coltrane - Coltrane - The Classic Quartet - Complete Impulse! Studio Recordings (1998) [FLAC]\CD1 of 8\06 - Soul Eyes.wav

Pre-gap length 0:00:03.57

Peak level 81.1 %
Track quality 100.0 %
Test CRC 5AD19034
Copy CRC 5AD19034
Copy OK

Track 7
Filename C:\Sharing_Geplant\John Coltrane - Coltrane - The Classic Quartet - Complete Impulse! Studio Recordings (1998) [FLAC]\CD1 of 8\07 - Miles' Mode.wav

Pre-gap length 0:00:03.57

Peak level 99.2 %
Track quality 100.0 %
Test CRC 81AA178F
Copy CRC 81AA178F
Copy OK

Track 8
Filename C:\Sharing_Geplant\John Coltrane - Coltrane - The Classic Quartet - Complete Impulse! Studio Recordings (1998) [FLAC]\CD1 of 8\08 - Tunji.wav

Pre-gap length 0:00:03.56

Peak level 98.1 %
Track quality 100.0 %
Test CRC 72CBE58C
Copy CRC 72CBE58C
Copy OK

Track 9
Filename C:\Sharing_Geplant\John Coltrane - Coltrane - The Classic Quartet - Complete Impulse! Studio Recordings (1998) [FLAC]\CD1 of 8\09 - Nancy.wav

Pre-gap length 0:00:03.57

Peak level 100.0 %
Track quality 100.0 %
Test CRC 94942527
Copy CRC 94942527
Copy OK

Track 10
Filename C:\Sharing_Geplant\John Coltrane - Coltrane - The Classic Quartet - Complete Impulse! Studio Recordings (1998) [FLAC]\CD1 of 8\10 - What's New.wav

Pre-gap length 0:00:03.57

Peak level 92.0 %
Track quality 100.0 %
Test CRC B02B4F83
Copy CRC B02B4F83
Copy OK

Track 11
Filename C:\Sharing_Geplant\John Coltrane - Coltrane - The Classic Quartet - Complete Impulse! Studio Recordings (1998) [FLAC]\CD1 of 8\11 - Up 'Gainst The Wall.wav

Pre-gap length 0:00:03.57

Peak level 99.0 %
Track quality 100.0 %
Test CRC 7DBCAF91
Copy CRC 7DBCAF91
Copy OK

Track 12
Filename C:\Sharing_Geplant\John Coltrane - Coltrane - The Classic Quartet - Complete Impulse! Studio Recordings (1998) [FLAC]\CD1 of 8\12 - Too Young To Go Steady.wav

Pre-gap length 0:00:03.56

Peak level 100.0 %
Track quality 100.0 %
Test CRC 222DE4BD
Copy CRC 222DE4BD
Copy OK

Track 13
Filename C:\Sharing_Geplant\John Coltrane - Coltrane - The Classic Quartet - Complete Impulse! Studio Recordings (1998) [FLAC]\CD1 of 8\13 - All Or Nothing At All.wav

Pre-gap length 0:00:03.57

Peak level 92.9 %
Track quality 100.0 %
Test CRC 428ECA7B
Copy CRC 428ECA7B
Copy OK

Track 14
Filename C:\Sharing_Geplant\John Coltrane - Coltrane - The Classic Quartet - Complete Impulse! Studio Recordings (1998) [FLAC]\CD1 of 8\14 - I Wish I Knew.wav

Pre-gap length 0:00:03.56

Peak level 100.0 %
Track quality 99.9 %
Test CRC 07AC6198
Copy CRC 07AC6198
Copy OK

No errors occured


End of status report

EAC log CD2
EAC extraction logfile from 11. July 2005, 19:09 for CD
John Coltrane / Coltrane - The Classic Quartet - Complete Impulse! Studio Recordings (Disc 2 of 8)

Used drive : PLEXTOR CD-R PX-W4824A Adapter: 1 ID: 0
Read mode : Secure with NO C2, accurate stream, disable cache
Read offset correction : 98
Overread into Lead-In and Lead-Out : Yes

Used output format : C:\Programme\FLAC\flac.exe (User Defined Encoder)
320 kBit/s
Additional command line options : -8 -V -T "artist=%a" -T "title=%t" -T "album=%g" -T "date=%y" -T "tracknumber=%n" -T "genre=%m" -T "comment=Impulse! IMPDD8-280" %s

Other options :
Fill up missing offset samples with silence : Yes
Delete leading and trailing silent blocks : No
Installed external ASPI interface


Track 1
Filename C:\Sharing_Geplant\John Coltrane - Coltrane - The Classic Quartet - Complete Impulse! Studio Recordings (1998) [FLAC]\CD2 of 8\01 - You Don't Know What Love Is.wav

Pre-gap length 0:00:02.00

Peak level 90.8 %
Track quality 100.0 %
Test CRC B8F47EB8
Copy CRC B8F47EB8
Copy OK

Track 2
Filename C:\Sharing_Geplant\John Coltrane - Coltrane - The Classic Quartet - Complete Impulse! Studio Recordings (1998) [FLAC]\CD2 of 8\02 - Say It (Over And Over Again).wav

Pre-gap length 0:00:02.57

Peak level 87.7 %
Track quality 99.9 %
Test CRC 95A9E9D9
Copy CRC 95A9E9D9
Copy OK

Track 3
Filename C:\Sharing_Geplant\John Coltrane - Coltrane - The Classic Quartet - Complete Impulse! Studio Recordings (1998) [FLAC]\CD2 of 8\03 - Vilia.wav

Pre-gap length 0:00:02.56

Peak level 87.7 %
Track quality 100.0 %
Test CRC ABD73302
Copy CRC ABD73302
Copy OK

Track 4
Filename C:\Sharing_Geplant\John Coltrane - Coltrane - The Classic Quartet - Complete Impulse! Studio Recordings (1998) [FLAC]\CD2 of 8\04 - After The Rain.wav

Pre-gap length 0:00:02.57

Peak level 88.9 %
Track quality 100.0 %
Test CRC CD894DA3
Copy CRC CD894DA3
Copy OK

Track 5
Filename C:\Sharing_Geplant\John Coltrane - Coltrane - The Classic Quartet - Complete Impulse! Studio Recordings (1998) [FLAC]\CD2 of 8\05 - Dear Old Stockholm.wav

Pre-gap length 0:00:04.57

Peak level 90.7 %
Track quality 100.0 %
Test CRC BE06B4DC
Copy CRC BE06B4DC
Copy OK

Track 6
Filename C:\Sharing_Geplant\John Coltrane - Coltrane - The Classic Quartet - Complete Impulse! Studio Recordings (1998) [FLAC]\CD2 of 8\06 - Your Lady.wav

Pre-gap length 0:00:03.60

Peak level 89.7 %
Track quality 100.0 %
Test CRC 6B95A27A
Copy CRC 6B95A27A
Copy OK

Track 7
Filename C:\Sharing_Geplant\John Coltrane - Coltrane - The Classic Quartet - Complete Impulse! Studio Recordings (1998) [FLAC]\CD2 of 8\07 - Alabama (takes 4 & 5).wav

Pre-gap length 0:00:02.53

Peak level 88.8 %
Track quality 100.0 %
Test CRC AC82135E
Copy CRC AC82135E
Copy OK

Track 8
Filename C:\Sharing_Geplant\John Coltrane - Coltrane - The Classic Quartet - Complete Impulse! Studio Recordings (1998) [FLAC]\CD2 of 8\08 - Lonnie's Lament.wav

Pre-gap length 0:00:02.60

Peak level 83.1 %
Track quality 100.0 %
Test CRC 48ED7516
Copy CRC 48ED7516
Copy OK

Track 9
Filename C:\Sharing_Geplant\John Coltrane - Coltrane - The Classic Quartet - Complete Impulse! Studio Recordings (1998) [FLAC]\CD2 of 8\09 - The Drum Thing.wav

Pre-gap length 0:00:02.64

Peak level 84.1 %
Track quality 99.9 %
Test CRC 2A2E2694
Copy CRC 2A2E2694
Copy OK

Track 10
Filename C:\Sharing_Geplant\John Coltrane - Coltrane - The Classic Quartet - Complete Impulse! Studio Recordings (1998) [FLAC]\CD2 of 8\10 - Wise One.wav

Pre-gap length 0:00:02.56

Peak level 83.8 %
Track quality 99.9 %
Test CRC EB44BF92
Copy CRC EB44BF92
Copy OK

No errors occured


End of status report

EAC log CD3
EAC extraction logfile from 11. July 2005, 16:46 for CD
John Coltrane / Coltrane - The Classic Quartet - Complete Impulse! Studio Recordings (Disc 3 of 8)

Used drive : PLEXTOR CD-R PX-W4824A Adapter: 1 ID: 0
Read mode : Secure with NO C2, accurate stream, disable cache
Read offset correction : 98
Overread into Lead-In and Lead-Out : Yes

Used output format : C:\Programme\FLAC\flac.exe (User Defined Encoder)
320 kBit/s
Additional command line options : -8 -V -T "artist=%a" -T "title=%t" -T "album=%g" -T "date=%y" -T "tracknumber=%n" -T "genre=%m" -T "comment=Impulse! IMPDD8-280" %s

Other options :
Fill up missing offset samples with silence : Yes
Delete leading and trailing silent blocks : No
Installed external ASPI interface


Track 1
Filename C:\Sharing_Geplant\John Coltrane - Coltrane - The Classic Quartet - Complete Impulse! Studio Recordings (1998) [FLAC]\CD3 of 8\01 - Crescent.wav

Pre-gap length 0:00:02.00

Peak level 80.7 %
Track quality 100.0 %
Test CRC C79D4ECD
Copy CRC C79D4ECD
Copy OK

Track 2
Filename C:\Sharing_Geplant\John Coltrane - Coltrane - The Classic Quartet - Complete Impulse! Studio Recordings (1998) [FLAC]\CD3 of 8\02 - Bessie's Blues.wav

Pre-gap length 0:00:02.56

Peak level 77.3 %
Track quality 100.0 %
Test CRC EDD9A3A0
Copy CRC EDD9A3A0
Copy OK

Track 3
Filename C:\Sharing_Geplant\John Coltrane - Coltrane - The Classic Quartet - Complete Impulse! Studio Recordings (1998) [FLAC]\CD3 of 8\03 - A Love Supreme, Part I - Acknowledgement.wav

Pre-gap length 0:00:03.56

Peak level 99.9 %
Track quality 100.0 %
Test CRC 6D7C5B8D
Copy CRC 6D7C5B8D
Copy OK

Track 4
Filename C:\Sharing_Geplant\John Coltrane - Coltrane - The Classic Quartet - Complete Impulse! Studio Recordings (1998) [FLAC]\CD3 of 8\04 - A Love Supreme, Part II - Resolution.wav

Peak level 100.0 %
Track quality 100.0 %
Test CRC B4127F7F
Copy CRC B4127F7F
Copy OK

Track 5
Filename C:\Sharing_Geplant\John Coltrane - Coltrane - The Classic Quartet - Complete Impulse! Studio Recordings (1998) [FLAC]\CD3 of 8\05 - A Love Supreme, Part III - Pursuance.wav

Pre-gap length 0:00:02.93

Peak level 99.5 %
Track quality 100.0 %
Test CRC 84C8F14E
Copy CRC 84C8F14E
Copy OK

Track 6
Filename C:\Sharing_Geplant\John Coltrane - Coltrane - The Classic Quartet - Complete Impulse! Studio Recordings (1998) [FLAC]\CD3 of 8\06 - A Love Supreme, Part IV - Psalm.wav

Peak level 99.9 %
Track quality 100.0 %
Test CRC A5B9D9F3
Copy CRC A5B9D9F3
Copy OK

Track 7
Filename C:\Sharing_Geplant\John Coltrane - Coltrane - The Classic Quartet - Complete Impulse! Studio Recordings (1998) [FLAC]\CD3 of 8\07 - Nature Boy (first version).wav

Pre-gap length 0:00:02.57

Peak level 94.0 %
Track quality 100.0 %
Test CRC 7CD83822
Copy CRC 7CD83822
Copy OK

Track 8
Filename C:\Sharing_Geplant\John Coltrane - Coltrane - The Classic Quartet - Complete Impulse! Studio Recordings (1998) [FLAC]\CD3 of 8\08 - Nature Boy.wav

Pre-gap length 0:00:02.56

Peak level 100.0 %
Track quality 100.0 %
Test CRC 709C814A
Copy CRC 709C814A
Copy OK

Track 9
Filename C:\Sharing_Geplant\John Coltrane - Coltrane - The Classic Quartet - Complete Impulse! Studio Recordings (1998) [FLAC]\CD3 of 8\09 - Feelin' Good.wav

Pre-gap length 0:00:02.56

Peak level 99.9 %
Track quality 100.0 %
Test CRC F6988588
Copy CRC F6988588
Copy OK

Track 10
Filename C:\Sharing_Geplant\John Coltrane - Coltrane - The Classic Quartet - Complete Impulse! Studio Recordings (1998) [FLAC]\CD3 of 8\10 - Chim Chim Cheree.wav

Pre-gap length 0:00:02.56

Peak level 99.9 %
Track quality 100.0 %
Test CRC CA2FC09F
Copy CRC CA2FC09F
Copy OK

No errors occured


End of status report

EAC log CD4
EAC extraction logfile from 11. July 2005, 15:23 for CD
John Coltrane / Coltrane - The Classic Quartet - Complete Impulse! Studio Recordings (Disc 4 of 8)

Used drive : PLEXTOR CD-R PX-W4824A Adapter: 1 ID: 0
Read mode : Secure with NO C2, accurate stream, disable cache
Read offset correction : 98
Overread into Lead-In and Lead-Out : Yes

Used output format : C:\Programme\FLAC\flac.exe (User Defined Encoder)
320 kBit/s
Additional command line options : -8 -V -T "artist=%a" -T "title=%t" -T "album=%g" -T "date=%y" -T "tracknumber=%n" -T "genre=%m" -T "comment=Impulse! IMPDD8-280" %s

Other options :
Fill up missing offset samples with silence : Yes
Delete leading and trailing silent blocks : No
Installed external ASPI interface


Track 1
Filename C:\Sharing_Geplant\John Coltrane - Coltrane - The Classic Quartet - Complete Impulse! Studio Recordings (1998) [FLAC]\CD4 of 8\01 - Brasilia.wav

Pre-gap length 0:00:02.00

Peak level 94.1 %
Track quality 100.0 %
Test CRC A54B24D3
Copy CRC A54B24D3
Copy OK

Track 2
Filename C:\Sharing_Geplant\John Coltrane - Coltrane - The Classic Quartet - Complete Impulse! Studio Recordings (1998) [FLAC]\CD4 of 8\02 - Song Of Praise.wav

Pre-gap length 0:00:02.17

Peak level 95.2 %
Track quality 100.0 %
Test CRC 37D1A509
Copy CRC 37D1A509
Copy OK

Track 3
Filename C:\Sharing_Geplant\John Coltrane - Coltrane - The Classic Quartet - Complete Impulse! Studio Recordings (1998) [FLAC]\CD4 of 8\03 - After The Crescent.wav

Pre-gap length 0:00:03.17

Peak level 93.8 %
Track quality 100.0 %
Test CRC BEACC2E6
Copy CRC BEACC2E6
Copy OK

Track 4
Filename C:\Sharing_Geplant\John Coltrane - Coltrane - The Classic Quartet - Complete Impulse! Studio Recordings (1998) [FLAC]\CD4 of 8\04 - Dear Lord.wav

Pre-gap length 0:00:03.17

Peak level 94.3 %
Track quality 100.0 %
Test CRC C5AAA2BF
Copy CRC C5AAA2BF
Copy OK

Track 5
Filename C:\Sharing_Geplant\John Coltrane - Coltrane - The Classic Quartet - Complete Impulse! Studio Recordings (1998) [FLAC]\CD4 of 8\05 - One Down, One Up.wav

Pre-gap length 0:00:03.16

Peak level 94.0 %
Track quality 100.0 %
Test CRC B5B24019
Copy CRC B5B24019
Copy OK

Track 6
Filename C:\Sharing_Geplant\John Coltrane - Coltrane - The Classic Quartet - Complete Impulse! Studio Recordings (1998) [FLAC]\CD4 of 8\06 - Welcome.wav

Pre-gap length 0:00:03.16

Peak level 91.1 %
Track quality 99.9 %
Test CRC 066D528E
Copy CRC 066D528E
Copy OK

Track 7
Filename C:\Sharing_Geplant\John Coltrane - Coltrane - The Classic Quartet - Complete Impulse! Studio Recordings (1998) [FLAC]\CD4 of 8\07 - The Last Blues.wav

Pre-gap length 0:00:03.16

Peak level 92.4 %
Track quality 100.0 %
Test CRC 950CFE52
Copy CRC 950CFE52
Copy OK

No errors occured


End of status report

EAC log CD5
EAC extraction logfile from 11. July 2005, 14:12 for CD
John Coltrane / Coltrane - The Classic Quartet - Complete Impulse! Studio Recordings (Disc 5 of 8)

Used drive : PLEXTOR CD-R PX-W4824A Adapter: 1 ID: 0
Read mode : Secure with NO C2, accurate stream, disable cache
Read offset correction : 98
Overread into Lead-In and Lead-Out : Yes

Used output format : C:\Programme\FLAC\flac.exe (User Defined Encoder)
320 kBit/s
Additional command line options : -8 -V -T "artist=%a" -T "title=%t" -T "album=%g" -T "date=%y" -T "tracknumber=%n" -T "genre=%m" -T "comment=Impulse! IMPDD8-280" %s

Other options :
Fill up missing offset samples with silence : Yes
Delete leading and trailing silent blocks : No
Installed external ASPI interface


Track 1
Filename C:\Sharing_Geplant\John Coltrane - Coltrane - The Classic Quartet - Complete Impulse! Studio Recordings (1998) [FLAC]\CD5 of 8\01 - Untitled Original 90314.wav

Pre-gap length 0:00:02.00

Peak level 99.8 %
Track quality 100.0 %
Test CRC A27EEE26
Copy CRC A27EEE26
Copy OK

Track 2
Filename C:\Sharing_Geplant\John Coltrane - Coltrane - The Classic Quartet - Complete Impulse! Studio Recordings (1998) [FLAC]\CD5 of 8\02 - Transition.wav

Pre-gap length 0:00:03.56

Peak level 99.8 %
Track quality 100.0 %
Test CRC 660B1FE0
Copy CRC 660B1FE0
Copy OK

Track 3
Filename C:\Sharing_Geplant\John Coltrane - Coltrane - The Classic Quartet - Complete Impulse! Studio Recordings (1998) [FLAC]\CD5 of 8\03 - Suite.wav

Pre-gap length 0:00:03.56

Peak level 99.8 %
Track quality 99.9 %
Test CRC 0E14EEF9
Copy CRC 0E14EEF9
Copy OK

Track 4
Filename C:\Sharing_Geplant\John Coltrane - Coltrane - The Classic Quartet - Complete Impulse! Studio Recordings (1998) [FLAC]\CD5 of 8\04 - Living Space.wav

Pre-gap length 0:00:03.57

Peak level 99.9 %
Track quality 100.0 %
Test CRC A8FB1E41
Copy CRC A8FB1E41
Copy OK

Track 5
Filename C:\Sharing_Geplant\John Coltrane - Coltrane - The Classic Quartet - Complete Impulse! Studio Recordings (1998) [FLAC]\CD5 of 8\05 - Dusk Dawn.wav

Pre-gap length 0:00:03.56

Peak level 99.8 %
Track quality 99.9 %
Test CRC 8A415B8D
Copy CRC 8A415B8D
Copy OK

No errors occured


End of status report

EAC log CD6
EAC extraction logfile from 11. July 2005, 8:46 for CD
Coltrane, John / Coltrane - The Classic Quartet - Complete Impulse! Studio Recordings (Disc 6 of 8)

Used drive : PLEXTOR CD-R PX-W4824A Adapter: 1 ID: 0
Read mode : Secure with NO C2, accurate stream, disable cache
Read offset correction : 98
Overread into Lead-In and Lead-Out : Yes

Used output format : C:\Programme\FLAC\flac.exe (User Defined Encoder)
320 kBit/s
Additional command line options : -8 -V -T "artist=%a" -T "title=%t" -T "album=%g" -T "date=%y" -T "tracknumber=%n" -T "genre=%m" -T "comment=Impulse! IMPDD8-280" %s

Other options :
Fill up missing offset samples with silence : Yes
Delete leading and trailing silent blocks : No
Installed external ASPI interface


Track 1
Filename C:\Sharing_Geplant\John Coltrane - Coltrane - The Classic Quartet - Complete Impulse! Studio Recordings (1998) [FLAC]\CD6 of 8\01 - Vigil.wav

Pre-gap length 0:00:02.00

Peak level 97.5 %
Track quality 100.0 %
Test CRC 24038A28
Copy CRC 24038A28
Copy OK

Track 2
Filename C:\Sharing_Geplant\John Coltrane - Coltrane - The Classic Quartet - Complete Impulse! Studio Recordings (1998) [FLAC]\CD6 of 8\02 - Untitled Original 90320.wav

Pre-gap length 0:00:02.80

Peak level 99.8 %
Track quality 100.0 %
Test CRC F05B8F88
Copy CRC F05B8F88
Copy OK

Track 3
Filename C:\Sharing_Geplant\John Coltrane - Coltrane - The Classic Quartet - Complete Impulse! Studio Recordings (1998) [FLAC]\CD6 of 8\03 - Dearly Beloved.wav

Pre-gap length 0:00:03.57

Peak level 93.8 %
Track quality 100.0 %
Test CRC F7A3394A
Copy CRC F7A3394A
Copy OK

Track 4
Filename C:\Sharing_Geplant\John Coltrane - Coltrane - The Classic Quartet - Complete Impulse! Studio Recordings (1998) [FLAC]\CD6 of 8\04 - Attaining.wav

Pre-gap length 0:00:03.56

Peak level 97.1 %
Track quality 100.0 %
Test CRC 692E540D
Copy CRC 692E540D
Copy OK

Track 5
Filename C:\Sharing_Geplant\John Coltrane - Coltrane - The Classic Quartet - Complete Impulse! Studio Recordings (1998) [FLAC]\CD6 of 8\05 - Sun Ship.wav

Pre-gap length 0:00:03.56

Peak level 98.5 %
Track quality 100.0 %
Test CRC 09255577
Copy CRC 09255577
Copy OK

Track 6
Filename C:\Sharing_Geplant\John Coltrane - Coltrane - The Classic Quartet - Complete Impulse! Studio Recordings (1998) [FLAC]\CD6 of 8\06 - Ascent.wav

Pre-gap length 0:00:03.60

Peak level 94.5 %
Track quality 100.0 %
Test CRC BBEBE064
Copy CRC BBEBE064
Copy OK

Track 7
Filename C:\Sharing_Geplant\John Coltrane - Coltrane - The Classic Quartet - Complete Impulse! Studio Recordings (1998) [FLAC]\CD6 of 8\07 - Amen.wav

Pre-gap length 0:00:03.56

Peak level 99.8 %
Track quality 100.0 %
Test CRC B249EC08
Copy CRC B249EC08
Copy OK

No errors occured


End of status report

EAC log CD7
EAC extraction logfile from 11. July 2005, 7:19 for CD
John Coltrane / Coltrane - The Classic Quartet - Complete Impulse! Studio Recordings - Disc 7 of 8

Used drive : IDE DVD-ROM 16X Adapter: 1 ID: 1
Read mode : Secure with NO C2, accurate stream, disable cache
Read offset correction : 12
Overread into Lead-In and Lead-Out : No

Used output format : C:\Programme\FLAC\flac.exe (User Defined Encoder)
320 kBit/s
Additional command line options : -8 -V -T "artist=%a" -T "title=%t" -T "album=%g" -T "date=%y" -T "tracknumber=%n" -T "genre=%m" -T "comment=Impulse! IMPDD8-280" %s

Other options :
Fill up missing offset samples with silence : Yes
Delete leading and trailing silent blocks : No
Installed external ASPI interface


Track 1
Filename C:\Sharing_Geplant\John Coltrane - Coltrane - The Classic Quartet - Complete Impulse! Studio Recordings (1998) [FLAC]\CD7 of 8\01 - Love.wav

Pre-gap length 0:00:02.00

Peak level 99.8 %
Track quality 100.0 %
Test CRC 907B78EC
Copy CRC 907B78EC
Copy OK

Track 2
Filename C:\Sharing_Geplant\John Coltrane - Coltrane - The Classic Quartet - Complete Impulse! Studio Recordings (1998) [FLAC]\CD7 of 8\02 - Compassion.wav

Peak level 99.8 %
Track quality 100.0 %
Test CRC 2397502C
Copy CRC 2397502C
Copy OK

Track 3
Filename C:\Sharing_Geplant\John Coltrane - Coltrane - The Classic Quartet - Complete Impulse! Studio Recordings (1998) [FLAC]\CD7 of 8\03 - Joy.wav

Peak level 99.7 %
Track quality 100.0 %
Test CRC 68ED1DF0
Copy CRC 68ED1DF0
Copy OK

Track 4
Filename C:\Sharing_Geplant\John Coltrane - Coltrane - The Classic Quartet - Complete Impulse! Studio Recordings (1998) [FLAC]\CD7 of 8\04 - Consequences.wav

Peak level 99.6 %
Track quality 100.0 %
Test CRC 78714FD0
Copy CRC 78714FD0
Copy OK

Track 5
Filename C:\Sharing_Geplant\John Coltrane - Coltrane - The Classic Quartet - Complete Impulse! Studio Recordings (1998) [FLAC]\CD7 of 8\05 - Serenity.wav

Peak level 98.7 %
Track quality 100.0 %
Test CRC 8EEAFF52
Copy CRC 8EEAFF52
Copy OK

Track 6
Filename C:\Sharing_Geplant\John Coltrane - Coltrane - The Classic Quartet - Complete Impulse! Studio Recordings (1998) [FLAC]\CD7 of 8\06 - Joy (second version).wav

Pre-gap length 0:00:03.66

Peak level 94.1 %
Track quality 99.9 %
Test CRC E86CF9D6
Copy CRC E86CF9D6
Copy OK

No errors occured


End of status report

EAC log CD8
EAC extraction logfile from 11. July 2005, 6:15 for CD
John Coltrane / Coltrane - The Classic Quartet - Complete Impulse! Studio Recordings

Used drive : IDE DVD-ROM 16X Adapter: 1 ID: 1
Read mode : Secure with NO C2, accurate stream, disable cache
Read offset correction : 12
Overread into Lead-In and Lead-Out : No

Used output format : C:\Programme\FLAC\flac.exe (User Defined Encoder)
320 kBit/s
Additional command line options : -8 -V -T "artist=%a" -T "title=%t" -T "album=%g" -T "date=%y" -T "tracknumber=%n" -T "genre=%m" -T "comment=Impulse! IMPDD8-280" %s

Other options :
Fill up missing offset samples with silence : Yes
Delete leading and trailing silent blocks : No
Installed external ASPI interface


Track 1
Filename C:\Sharing_Geplant\John Coltrane - Coltrane - The Classic Quartet - Complete Impulse! Studio Recordings (1998) [FLAC]\CD8 of 8\01 - Crescent (first version).wav

Pre-gap length 0:00:02.00

Peak level 85.9 %
Track quality 100.0 %
Test CRC BE1BD5B2
Copy CRC BE1BD5B2
Copy OK

Track 2
Filename C:\Sharing_Geplant\John Coltrane - Coltrane - The Classic Quartet - Complete Impulse! Studio Recordings (1998) [FLAC]\CD8 of 8\02 - Bessie's Blues (first version, incomplete).wav

Pre-gap length 0:00:03.57

Peak level 85.5 %
Track quality 100.0 %
Test CRC A809DFC6
Copy CRC A809DFC6
Copy OK

Track 3
Filename C:\Sharing_Geplant\John Coltrane - Coltrane - The Classic Quartet - Complete Impulse! Studio Recordings (1998) [FLAC]\CD8 of 8\03 - Song of Praise (first version).wav

Pre-gap length 0:00:03.57

Peak level 96.5 %
Track quality 100.0 %
Test CRC 583E7EFD
Copy CRC 583E7EFD
Copy OK

Track 4
Filename C:\Sharing_Geplant\John Coltrane - Coltrane - The Classic Quartet - Complete Impulse! Studio Recordings (1998) [FLAC]\CD8 of 8\04 - A Love Supreme, Part II - Resolution (alternate take).wav

Peak level 91.1 %
Track quality 100.0 %
Test CRC 823FFFB7
Copy CRC 823FFFB7
Copy OK

Track 5
Filename C:\Sharing_Geplant\John Coltrane - Coltrane - The Classic Quartet - Complete Impulse! Studio Recordings (1998) [FLAC]\CD8 of 8\05 - Feelin' Good (alternate take).wav

Pre-gap length 0:00:03.57

Peak level 90.7 %
Track quality 100.0 %
Test CRC 13123CF0
Copy CRC 13123CF0
Copy OK

Track 6
Filename C:\Sharing_Geplant\John Coltrane - Coltrane - The Classic Quartet - Complete Impulse! Studio Recordings (1998) [FLAC]\CD8 of 8\06 - Dear Lord (breakdowns & alternate take).wav

Pre-gap length 0:00:03.57

Peak level 89.5 %
Track quality 100.0 %
Test CRC 91630307
Copy CRC 91630307
Copy OK

Track 7
Filename C:\Sharing_Geplant\John Coltrane - Coltrane - The Classic Quartet - Complete Impulse! Studio Recordings (1998) [FLAC]\CD8 of 8\07 - Living Space (breakdown & alternate take).wav

Pre-gap length 0:00:03.56

Peak level 99.8 %
Track quality 99.9 %
Test CRC 21502473
Copy CRC 21502473
Copy OK

No errors occured


End of status report






All thanks goes to the original releaser!



ADVERTISING » Very Fast Download!



« ADVERTISING




Posted By: ePhysician Date: 30 Sep 2013 17:04:46
Thank you Sir for another stellar JC box set. Such an informative Blog Entry!
Posted By: diddlycrap Date: 01 Oct 2013 02:13:09
Thank you very much..
Posted By: libra_winmx Date: 02 Oct 2013 23:42:47
My friend ruskaval, hi,

THANKS A LOT!!!!!!!
Gracias,

Libra, from Brazil, Rio de Janeiro
Posted By: cvllos Date: 30 Oct 2013 01:25:46
Thank you, Rusk.
Better late...
Posted By: maxteba Date: 06 Dec 2013 19:29:52
Thanks to the original releaser but thank you too ruskaval for sharing!
una belleza!